На всех торрентах на трекере установлена скидка на скачивание в размере 100 процентов(а).
 Возможность скачивания торрента НЕ зависит от ограничений при низком ратио, низком аплоаде, требуемом ратио или требуемом аплоаде.


Начать новую тему Ответить на тему
Статистика раздачи
Размер: 5.63 ГБ | Добавлен: 23 фев 2014, 21:06 | Скачали: 0
Сидеров: 0  [0 байт/сек]    Личеров: 0  [0 байт/сек]
Пред. тема | След. тема 

Автор
Сообщение

СообщениеДобавлено: 23 фев 2014, 21:06 

Вкратце:
25 лет назад Япония приняла закон, согласно которому большинство книг оказалось под запретом. Сделано это было, чтобы оберегать молодежь от вредного влияния. Специальные Отряды Цензуры занялись уничтожением книг и целых библиотек. Однако одновременно с этим бы принят Закон о свободе слова, по которому библиотеки получили права на защиту. Теперь библиотекари с оружием в руках смогут отстоять бесценные книги.


Название: Библиотечные войны
Оригинальное название: Toshokan sensô / Library Wars
Год выхода: 2013
Жанр: боевик, драма
Режиссер: Синсукэ Сато

В ролях: Дзюнити Окада, Нана Эйкура, Кэй Танака, Сота Фукуси, Тиаки Курияма, Кадзуса Судзуки, Кодзи Исидзака, Дзюн Хасимото, Наоми Нисида





Выпущено: Япония
Продолжительность: 02:08:01
Озвучивание: Любительское (двухголосое) [DeadSno & den904]

Формат: MKV
Качество: BDRip 720p [WiKi]
Видео: 5462 kb/s, 1280х534
Аудио: Russian: AC3, 192 kb/s (2 ch) / Japanese: AC3, 640 kb/s (6 ch)
Субтитры: English
Дополнительно: Сохранены оригинальные чаптеры как на Blu-ray

Скачать: Сэмпл

Релиз группы:



Общее
Library.Wars.2013.Blu.Ray.720p.CINEMANIA.mkv
Формат : Matroska
Версия формата : Version 4 / Version 2
Размер файла : 5,63 Гбайт
Продолжительность : 2 ч. 8 м.
Общий поток : 6295 Кбит/сек
Название фильма : Release Group CINEMANIA
Дата кодирования : UTC 2014-02-23 08:12:01
Программа кодирования : mkvmerge v6.7.0 ('Back to the Ground') 64bit built on Jan 8 2014 15:10:52
Библиотека кодирования : libebml v1.3.0 + libmatroska v1.4.1

Видео
Идентификатор : 1
Формат : AVC
Формат/Информация : Advanced Video Codec
Профиль формата : High@L4.1
Параметр CABAC формата : Да
Параметр ReFrames формата : 12 кадров
Идентификатор кодека : V_MPEG4/ISO/AVC
Продолжительность : 2 ч. 8 м.
Битрейт : 5462 Кбит/сек
Ширина : 1280 пикселей
Высота : 534 пикселя
Соотношение сторон : 2,40:1
Режим частоты кадров : Постоянный
Частота кадров : 23,976 кадра/сек
Цветовое пространство : YUV
Субдискретизация насыщенности : 4:2:0
Битовая глубина : 8 бит
Тип развёртки : Прогрессивная
Бит/(Пиксели*Кадры) : 0.333
Размер потока : 4,77 Гбайт (85%)
Заголовок : Release Group CINEMANIA
Библиотека кодирования : x264 core 129 r2245+704+36 8e61944 tMod+MixAQ [8-bit@4:2:0 X86_64]
Настройки программы : cabac=1 / ref=12 / deblock=1:-3:-3 / analyse=0x3:0x133 / me=umh / subme=11 / psy=1 / fade_compensate=0.00 / psy_rd=1.05:0.10 / mixed_ref=1 / me_range=32 / chroma_me=1 / trellis=2 / 8x8dct=1 / cqm=0 / deadzone=21,11 / fast_pskip=0 / chroma_qp_offset=-3 / threads=18 / lookahead_threads=3 / sliced_threads=0 / nr=0 / decimate=0 / interlaced=0 / bluray_compat=0 / constrained_intra=0 / fgo=0 / bframes=8 / b_pyramid=2 / b_adapt=2 / b_bias=0 / direct=3 / weightb=1 / open_gop=0 / weightp=2 / keyint=250 / keyint_min=23 / scenecut=40 / intra_refresh=0 / rc=2pass / mbtree=0 / bitrate=5462 / ratetol=1.0 / qcomp=0.70 / qpmin=0 / qpmax=69 / qpstep=4 / cplxblur=20.0 / qblur=0.5 / ip_ratio=1.40 / pb_ratio=1.30 / aq=3 / aq-strength=0.90 / aq-sensitivity=10.00 / aq-ifactor=1.00 / aq-pfactor=1.00 / aq-bfactor=1.00 / aq2=0
Язык : Japanese
Default : Да
Forced : Нет

Аудио #1
Идентификатор : 2
Формат : AC-3
Формат/Информация : Audio Coding 3
Расширение режима : CM (complete main)
Параметр Endianness формата : Big
Идентификатор кодека : A_AC3
Продолжительность : 2 ч. 8 м.
Вид битрейта : Постоянный
Битрейт : 192 Кбит/сек
Каналы : 2 канала
Расположение каналов : Front: L R
Частота : 48,0 КГц
Битовая глубина : 16 бит
Метод сжатия : С потерями
Размер потока : 176 Мбайт (3%)
Заголовок : Влад и Снежинка
Язык : Russian
Default : Да
Forced : Да

Аудио #2
Идентификатор : 3
Формат : AC-3
Формат/Информация : Audio Coding 3
Расширение режима : CM (complete main)
Параметр Endianness формата : Big
Идентификатор кодека : A_AC3
Продолжительность : 2 ч. 8 м.
Вид битрейта : Постоянный
Битрейт : 640 Кбит/сек
Каналы : 6 каналов
Расположение каналов : Front: L C R, Side: L R, LFE
Частота : 48,0 КГц
Битовая глубина : 16 бит
Метод сжатия : С потерями
Размер потока : 586 Мбайт (10%)
Язык : Japanese
Default : Нет
Forced : Нет

Текст
Идентификатор : 4
Формат : UTF-8
Идентификатор кодека : S_TEXT/UTF8
Идентификатор кодека/Информация : UTF-8 Plain Text
Язык : English
Default : Нет
Forced : Нет

Меню
00:00:00.000 : en:00:00:00.000
00:02:45.498 : en:00:02:45.498
00:08:36.432 : en:00:08:36.432
00:12:26.537 : en:00:12:26.537
00:17:18.579 : en:00:17:18.579
00:22:00.777 : en:00:22:00.777
00:28:15.902 : en:00:28:15.902
00:34:53.174 : en:00:34:53.174
00:43:28.814 : en:00:43:28.814
00:51:50.398 : en:00:51:50.398
00:58:25.668 : en:00:58:25.668
01:02:51.309 : en:01:02:51.309
01:10:55.251 : en:01:10:55.251
01:18:43.176 : en:01:18:43.176
01:30:31.551 : en:01:30:31.551
01:36:41.670 : en:01:36:41.670
01:40:21.473 : en:01:40:21.473
01:46:54.491 : en:01:46:54.491
02:00:22.256 : en:02:00:22.256
02:03:34.949 : en:02:03:34.949
02:08:01.674 : en:02:08:01.674

загрузка...
Правила, инструкции, FAQ!!!
Торрент  Добавлен [23 фев 2014, 21:06] Скачать торрент
Скачать торрент
[ Размер 28.72 КБ / Просмотров 11 ]

Статус  
 
Размер  5.63 ГБ
Приватный: Нет (DHT включён)
.torrent скачан  0
Как залить торрент? | Как скачать Torrent? | Как смотреть и слушать онлайн?  


     Отправить личное сообщение
   
Страница 1 из 1
Показать сообщения за:  Поле сортировки  
Начать новую тему Ответить на тему

   Похожие торренты   Автор   Ответы   Просмотры   Последнее сообщение 
В этой теме нет новых непрочитанных сообщений. Скачать торрент Библиотечные войны / Toshokan sensô (2013) HDRip | L2

в форуме Драмы, Мелодрамы, Размер: 1.46 ГБ, Здоровье: 0%

Anonymous

0
0|0

17
0

23 фев 2014, 08:49

Anonymous Перейти к последнему сообщению

В этой теме нет новых непрочитанных сообщений. Скачать торрент Звездные войны: Сага / Star Wars: The Complete Saga (1977-2005) BDRip 1080p

в форуме Антологии, Размер: 69.32 ГБ, Здоровье: 100%

Anonymous

0
74|46

161
69

28 мар 2014, 17:16

Anonymous Перейти к последнему сообщению

В этой теме нет новых непрочитанных сообщений. Скачать торрент Проверен Звёздные войны: Пробуждение силы / Star Wars: Episode VII - The Force Awakens (2015) BDRip | iTunes

в форуме Фантастика, Фэнтези, Размер: 1.46 ГБ, Здоровье: 100%

Гость

0
75|1

503
9

01 апр 2016, 20:13

Гость Перейти к последнему сообщению

В этой теме нет новых непрочитанных сообщений. Скачать торрент Проверен Звёздные войны: Пробуждение силы / Star Wars: Episode VII - The Force Awakens (2015) BDRip 1080p | iTunes

в форуме 720p | 1080p, Размер: 17.56 ГБ, Здоровье: 100%

Гость

0
1220|550

276
3139

01 апр 2016, 20:17

Гость Перейти к последнему сообщению

В этой теме нет новых непрочитанных сообщений. Скачать торрент Проверен David Reynolds/Дэвид Рейнолдс -«Star Wars:Incredible Cross-sections of Star Wars, Episode I - The Phantom Menace: The Definitive Guide to the Craft»/«Звездные войны:Эпизод I - Скрытая угроза: Полное руководство по судам.»[1999, PDF, ENG]

в форуме Рисунок, графический дизайн, Размер: 23.82 МБ, Здоровье: 100%

Anonymous

0
16|4

224
2

27 янв 2016, 22:33

Anonymous Перейти к последнему сообщению



Сейчас этот форум просматривают: нет зарегистрированных пользователей и гости: 1


Вы не можете начинать темы
Вы не можете отвечать на сообщения
Вы не можете редактировать свои сообщения
Вы не можете удалять свои сообщения
Вы не можете добавлять вложения

Перейти:  

!ВНИМАНИЕ!
 Ресурс не предоставляет электронные версии произведений, а занимается лишь коллекционированием и каталогизацией ссылок, присылаемых и публикуемых на форуме нашими читателями. Если вы являетесь правообладателем какого-либо представленного материала и не желаете чтобы ссылка на него находилась в нашем каталоге, свяжитесь с нами и мы незамедлительно удалим её. Файлы для обмена на трекере предоставлены пользователями сайта, и администрация не несёт ответственности за их содержание. Просьба не заливать файлы, защищенные авторскими правами, а также файлы нелегального содержания!