На всех торрентах на трекере установлена скидка на скачивание в размере 100 процентов(а).
 Возможность скачивания торрента НЕ зависит от ограничений при низком ратио, низком аплоаде, требуемом ратио или требуемом аплоаде.


Начать новую тему Ответить на тему
Статистика раздачи
Размер: 4.49 ГБ | Добавлен: 23 фев 2014, 09:07 | Скачали: 0
Сидеров: 0  [0 байт/сек]    Личеров: 1  [0 байт/сек]
Пред. тема | След. тема 

Автор
Сообщение

СообщениеДобавлено: 23 фев 2014, 09:07 

Вкратце:
Лейтенант Кюдзо Курокава возвращается с войны весь в шрамах, оглохший и почти немой, без рук и ног. Он – «червяк», который способен только есть и спать. Его жена переживает всю гамму чувств – от жалости до ненависти. Вся деревня знает его, как «Бога Войны», который и годится только для того, чтобы показывать военную форму с наградами от императора на изуродованном теле...


Название: Червяк / Гусеница
Оригинальное название: Caterpillar / Kyatapira
Год выхода: 2010
Жанр: драма, военный
Режиссер: Кодзи Вакамацу

В ролях: Шинобу Терадзима, Еми Масуда, Сабу Кавахара, Маки Ишикава, Арата, Икиро Огура, Сансиро Кобаяши, Кен Фурусава, Марико Терада





Выпущено: Япония
Продолжительность: 01:27:05
Озвучивание: Любительское (одноголосое) [den904]


Формат: MKV
Качество: BDRip 720p [WiKi]
Видео: 6736 kb/s, 1280х720
Аудио: Russian: AC3, 192 kb/s (2 ch) / Japanese: AC3, 448 kb/s (2 ch)
Субтитры: Russian [julz_nsk], English

Скачать: Сэмпл

Релиз группы:



Общее
Caterpillar.2010.Blu.Ray.720p.CINEMANIA.mkv
Формат : Matroska
Версия формата : Version 4 / Version 2
Размер файла : 4,49 Гбайт
Продолжительность : 1 ч. 27 м.
Общий поток : 7381 Кбит/сек
Название фильма : Release Group CINEMANIA
Дата кодирования : UTC 2014-02-22 22:26:46
Программа кодирования : mkvmerge v6.7.0 ('Back to the Ground') 64bit built on Jan 8 2014 15:10:52
Библиотека кодирования : libebml v1.3.0 + libmatroska v1.4.1

Видео
Идентификатор : 1
Формат : AVC
Формат/Информация : Advanced Video Codec
Профиль формата : High@L4.1
Параметр CABAC формата : Да
Параметр ReFrames формата : 8 кадров
Идентификатор кодека : V_MPEG4/ISO/AVC
Продолжительность : 1 ч. 27 м.
Битрейт : 6736 Кбит/сек
Ширина : 1280 пикселей
Высота : 720 пикселей
Соотношение сторон : 16:9
Режим частоты кадров : Постоянный
Частота кадров : 23,976 кадра/сек
Цветовое пространство : YUV
Субдискретизация насыщенности : 4:2:0
Битовая глубина : 8 бит
Тип развёртки : Прогрессивная
Бит/(Пиксели*Кадры) : 0.305
Размер потока : 4,01 Гбайт (89%)
Заголовок : Release Group CINEMANIA
Библиотека кодирования : x264 core 98 r1649 c54c47d
Настройки программы : cabac=1 / ref=8 / deblock=1:-3:-3 / analyse=0x3:0x113 / me=umh / subme=9 / psy=1 / psy_rd=1.10:0.00 / mixed_ref=1 / me_range=32 / chroma_me=1 / trellis=2 / 8x8dct=1 / cqm=0 / deadzone=21,11 / fast_pskip=0 / chroma_qp_offset=-4 / threads=6 / sliced_threads=0 / nr=0 / decimate=0 / interlaced=0 / constrained_intra=0 / bframes=6 / b_pyramid=2 / b_adapt=2 / b_bias=0 / direct=3 / weightb=1 / weightp=2 / keyint=250 / keyint_min=25 / scenecut=40 / intra_refresh=0 / rc_lookahead=48 / rc=2pass / mbtree=1 / bitrate=6736 / ratetol=1.0 / qcomp=0.60 / qpmin=10 / qpmax=51 / qpstep=4 / cplxblur=20.0 / qblur=0.5 / ip_ratio=1.40 / aq=1:0.80
Язык : English
Default : Да
Forced : Нет

Аудио #1
Идентификатор : 2
Формат : AC-3
Формат/Информация : Audio Coding 3
Расширение режима : CM (complete main)
Параметр Endianness формата : Big
Идентификатор кодека : A_AC3
Продолжительность : 1 ч. 27 м.
Вид битрейта : Постоянный
Битрейт : 192 Кбит/сек
Каналы : 2 канала
Расположение каналов : Front: L R
Частота : 48,0 КГц
Битовая глубина : 16 бит
Метод сжатия : С потерями
Размер потока : 120 Мбайт (3%)
Заголовок : den904
Язык : Russian
Default : Да
Forced : Да

Аудио #2
Идентификатор : 3
Формат : AC-3
Формат/Информация : Audio Coding 3
Расширение режима : CM (complete main)
Параметр Endianness формата : Big
Идентификатор кодека : A_AC3
Продолжительность : 1 ч. 27 м.
Вид битрейта : Постоянный
Битрейт : 448 Кбит/сек
Каналы : 2 канала
Расположение каналов : Front: L R
Частота : 48,0 КГц
Битовая глубина : 16 бит
Метод сжатия : С потерями
Размер потока : 279 Мбайт (6%)
Язык : Japanese
Default : Нет
Forced : Нет

Текст #1
Идентификатор : 4
Формат : UTF-8
Идентификатор кодека : S_TEXT/UTF8
Идентификатор кодека/Информация : UTF-8 Plain Text
Заголовок : julz_nsk
Язык : Russian
Default : Нет
Forced : Нет

Текст #2
Идентификатор : 5
Формат : UTF-8
Идентификатор кодека : S_TEXT/UTF8
Идентификатор кодека/Информация : UTF-8 Plain Text
Язык : English
Default : Нет
Forced : Нет
загрузка...
Правила, инструкции, FAQ!!!
Торрент  Добавлен [23 фев 2014, 09:07] Скачать торрент
Скачать торрент
[ Размер 23.02 КБ / Просмотров 4 ]

Статус  
 
Размер  4.49 ГБ
Приватный: Нет (DHT включён)
.torrent скачан  0
Как залить торрент? | Как скачать Torrent? | Как смотреть и слушать онлайн?  


     Отправить личное сообщение
   
Страница 1 из 1
Показать сообщения за:  Поле сортировки  
Начать новую тему Ответить на тему

   Похожие торренты   Автор   Ответы   Просмотры   Последнее сообщение 
В этой теме нет новых непрочитанных сообщений. Скачать торрент Проверен (Speed/Power/Heavy Metal) Redeemer - Caterpillar - 2010, MP3, VBR 216 kbps

в форуме Heavy, Power, Progressive (Metal), Размер: 79.67 МБ, Здоровье: 0%

Anonymous

0
0|0

0
0

08 окт 2016, 17:55

Anonymous Перейти к последнему сообщению

В этой теме нет новых непрочитанных сообщений. Скачать торрент Проверен Червяк Джим / Earthworm Jim [S01-02] (1995) DVDRip | D

в форуме Зарубежные мультфильмы, Размер: 8.05 ГБ, Здоровье: 100%

Anonymous

0
32|8

50
154

26 июн 2014, 17:18

Anonymous Перейти к последнему сообщению

В этой теме нет новых непрочитанных сообщений. Скачать торрент Проверен (Jazz-Rock) Mina - Caterpillar - 1991, FLAC (tracks+.cue), lossless

в форуме Progressive & Art-Rock, Размер: 520.6 МБ, Здоровье: 100%

Anonymous

0
2|1

3
0

30 авг 2016, 00:40

Anonymous Перейти к последнему сообщению

В этой теме нет новых непрочитанных сообщений. Скачать торрент Проверен (Acid, Hard Trance) [16/44] Caterpillar ‎– How Do You Feel - 1995, FLAC (tracks)

в форуме Электронная музыка (оцифровки), Размер: 102.87 МБ, Здоровье: 0%

Anonymous

0
0|0

0
0

15 сен 2016, 20:16

Anonymous Перейти к последнему сообщению

В этой теме нет новых непрочитанных сообщений. Скачать торрент Проверен Feuertanz Festival 2010 (Ignis Fatuu, Folkstone, Wutas, Fejd, Furunkulus, Feuerschwanz, Omnia, Subway to Sally, Eluveitie) [2010, Folk Metal, BDRip 720p]

в форуме Концерты (HD-Video), Размер: 5.42 ГБ, Здоровье: 100%

Anonymous

0
7|2

1
0

23 окт 2016, 16:06

Anonymous Перейти к последнему сообщению



Сейчас этот форум просматривают: нет зарегистрированных пользователей и гости: 1


Вы не можете начинать темы
Вы не можете отвечать на сообщения
Вы не можете редактировать свои сообщения
Вы не можете удалять свои сообщения
Вы не можете добавлять вложения

Перейти:  

!ВНИМАНИЕ!
 Ресурс не предоставляет электронные версии произведений, а занимается лишь коллекционированием и каталогизацией ссылок, присылаемых и публикуемых на форуме нашими читателями. Если вы являетесь правообладателем какого-либо представленного материала и не желаете чтобы ссылка на него находилась в нашем каталоге, свяжитесь с нами и мы незамедлительно удалим её. Файлы для обмена на трекере предоставлены пользователями сайта, и администрация не несёт ответственности за их содержание. Просьба не заливать файлы, защищенные авторскими правами, а также файлы нелегального содержания!