На всех торрентах на трекере установлена скидка на скачивание в размере 100 процентов(а).
 Возможность скачивания торрента НЕ зависит от ограничений при низком ратио, низком аплоаде, требуемом ратио или требуемом аплоаде.


Начать новую тему Ответить на тему
Статистика раздачи
Размер: 7.76 ГБ | Добавлен: 22 фев 2014, 19:36 | Скачали: 10
Сидеров: 18  [0 байт/сек]    Личеров: 1  [0 байт/сек]
Пред. тема | След. тема 

Автор
Сообщение

СообщениеДобавлено: 22 фев 2014, 19:36 

Вкратце:
В «Зелёной зоне» оккупированного Ирака — территории, находящейся под контролем армии Соединенных Штатов — агенты ЦРУ тщетно ищут следы оружия массового поражения. Необъективность расследования становится очевидной офицеру Рою Миллеру, попытавшемуся придать огласке полученные результаты. Но как далеко могут зайти генералы, решившие во что бы то ни стало навести порядок в нестабильном регионе?



Название: Не брать живым
Оригинальное название: Green Zone
Год выхода: 2010
Жанр: боевик, триллер, драма, военный
Режиссер: Пол Гринграсс

В ролях: Мэтт Дэймон, Грег Киннер, Брендан Глисон, Халид Абдалла, Джейсон Айзекс, Эми Райан, Саид Фарадж, Никойе Бэнкс, Йигал Наор, Эдуард Х. Р. Глюк




Выпущено: Франция, США, Испания, Великобритания
Продолжительность: 01:54:46
Перевод: Дублированный + Оригинал


Кодек: x264
Качество: BDRip 1080p
Видео: 1920x800, 8786 Kbps, 23.976 fps
Аудио #1: AC-3, 6 ch, 448 kbps (Rus)
Аудио #2: AC-3, 6 ch, 448 kbps (Eng)
Субтитры: русские (полные, форсированные), английские

Общее
Уникальный идентификатор : 190018970773205665404378375784771665493 (0x8EF45294B16C200680B83DA5EF5CBE55)
Полное имя : Не брать живым.2010.BDRip.1080p.Rus.Eng.mkv
Формат : Matroska
Версия формата : Version 2
Размер файла : 7,76 Гбайт
Продолжительность : 1 ч. 54 м.
Общий поток : 9680 Кбит/сек
Название фильма : Не брать живым.2010
Дата кодирования : UTC 2014-02-22 15:23:18
Программа кодирования : mkvmerge v5.8.0 ('No Sleep / Pillow') built on Sep 2 2012 15:37:04
Библиотека кодирования : libebml v1.2.3 + libmatroska v1.3.0

Видео
Идентификатор : 1
Формат : AVC
Формат/Информация : Advanced Video Codec
Профиль формата : High@L4.1
Параметр CABAC формата : Да
Параметр ReFrames формата : 5 кадров
Идентификатор кодека : V_MPEG4/ISO/AVC
Продолжительность : 1 ч. 54 м.
Битрейт : 8786 Кбит/сек
Ширина : 1920 пикселей
Высота : 800 пикселей
Соотношение сторон : 2,40:1
Режим частоты кадров : Постоянный
Частота кадров : 23,976 кадра/сек
Цветовое пространство : YUV
Субдискретизация насыщенности : 4:2:0
Битовая глубина : 8 бит
Тип развёртки : Прогрессивная
Бит/(Пиксели*Кадры) : 0.239
Размер потока : 6,89 Гбайт (89%)
Заголовок : Rip by Boriy
Библиотека кодирования : x264 core 142 r2389 956c8d8
Настройки программы : cabac=1 / ref=5 / deblock=1:0:0 / analyse=0x3:0x113 / me=umh / subme=11 / psy=1 / psy_rd=1.00:0.00 / mixed_ref=1 / me_range=32 / chroma_me=1 / trellis=2 / 8x8dct=1 / cqm=0 / deadzone=21,11 / fast_pskip=0 / chroma_qp_offset=-2 / threads=12 / lookahead_threads=1 / sliced_threads=0 / nr=0 / decimate=0 / interlaced=0 / bluray_compat=0 / constrained_intra=0 / bframes=6 / b_pyramid=2 / b_adapt=2 / b_bias=0 / direct=3 / weightb=1 / open_gop=0 / weightp=2 / keyint=240 / keyint_min=23 / scenecut=40 / intra_refresh=0 / rc=2pass / mbtree=0 / bitrate=8786 / ratetol=1.0 / qcomp=0.60 / qpmin=0 / qpmax=69 / qpstep=4 / cplxblur=20.0 / qblur=0.5 / ip_ratio=1.40 / pb_ratio=1.30 / aq=1:0.80
Язык : English
Default : Да
Forced : Нет

Аудио #1
Идентификатор : 2
Формат : AC-3
Формат/Информация : Audio Coding 3
Расширение режима : CM (complete main)
Параметр Endianness формата : Big
Идентификатор кодека : A_AC3
Продолжительность : 1 ч. 54 м.
Вид битрейта : Постоянный
Битрейт : 448 Кбит/сек
Каналы : 6 каналов
Расположение каналов : Front: L C R, Side: L R, LFE
Частота : 48,0 КГц
Битовая глубина : 16 бит
Метод сжатия : С потерями
Размер потока : 368 Мбайт (5%)
Заголовок : Дубляж
Язык : Russian
Default : Да
Forced : Нет

Аудио #2
Идентификатор : 3
Формат : AC-3
Формат/Информация : Audio Coding 3
Расширение режима : CM (complete main)
Параметр Endianness формата : Big
Идентификатор кодека : A_AC3
Продолжительность : 1 ч. 54 м.
Вид битрейта : Постоянный
Битрейт : 448 Кбит/сек
Каналы : 6 каналов
Расположение каналов : Front: L C R, Side: L R, LFE
Частота : 48,0 КГц
Битовая глубина : 16 бит
Метод сжатия : С потерями
Размер потока : 368 Мбайт (5%)
Заголовок : Оригинал
Язык : English
Default : Нет
Forced : Нет

Текст #1
Идентификатор : 4
Формат : UTF-8
Идентификатор кодека : S_TEXT/UTF8
Идентификатор кодека/Информация : UTF-8 Plain Text
Заголовок : Forced
Язык : Russian
Default : Да
Forced : Да

Текст #2
Идентификатор : 5
Формат : UTF-8
Идентификатор кодека : S_TEXT/UTF8
Идентификатор кодека/Информация : UTF-8 Plain Text
Заголовок : Full
Язык : Russian
Default : Нет
Forced : Нет

Текст #3
Идентификатор : 6
Формат : UTF-8
Идентификатор кодека : S_TEXT/UTF8
Идентификатор кодека/Информация : UTF-8 Plain Text
Заголовок : Full
Язык : English
Default : Нет
Forced : Нет

Меню
00:00:00.000 : :Invasion of Iraq
00:02:46.457 : :Search for WMD
00:10:00.975 : :Bad Intel
00:16:36.370 : :Democracy is Messy
00:21:01.009 : :A Local Tip
00:25:39.871 : :High-Value Targets
00:33:30.299 : :The Book
00:40:27.508 : :Coming Up Empty
00:45:25.431 : :Code Name "Magellan"
00:50:59.222 : :Choosing Sides
00:55:15.270 : :Classified Information
01:00:21.284 : :Straight to the Source
01:05:09.989 : :Hiding the Truth
01:11:02.508 : :Major Announcement
01:18:28.620 : :In Enemy Hands
01:22:58.264 : :Jack of Clubs
01:27:00.882 : :It Has Only Just Begun
01:34:39.715 : :Not For You to Decide
01:39:15.658 : :A New Beginning
01:44:58.625 : :End Titles
загрузка...
Правила, инструкции, FAQ!!!
Торрент  Добавлен [22 фев 2014, 19:36] Скачать торрент
Скачать торрент
[ Размер 39.33 КБ / Просмотров 5 ]

Статус  
 
Размер  7.76 ГБ
Приватный: Нет (DHT включён)
.torrent скачан  10
Как залить торрент? | Как скачать Torrent? | Как смотреть и слушать онлайн?  


     Отправить личное сообщение
   
Страница 1 из 1
Показать сообщения за:  Поле сортировки  
Начать новую тему Ответить на тему

   Похожие торренты   Автор   Ответы   Просмотры   Последнее сообщение 
В этой теме нет новых непрочитанных сообщений. Скачать торрент Не брать живым / Green Zone (2010) BDRip-AVC от ExKinoRay

в форуме 720p | 1080p, Размер: 3.08 ГБ, Здоровье: 0%

Anonymous

0
0|0

15
0

22 фев 2014, 19:32

Anonymous Перейти к последнему сообщению

В этой теме нет новых непрочитанных сообщений. Скачать торрент Не брать живым / Green Zone (Пол Гринграсс / Paul Greengrass) [2010, боевик, триллер, военный, BDRip] Dub

в форуме Боевики, Размер: 1.41 ГБ, Здоровье: 100%

Anonymous

0
35|11

35
1

16 апр 2014, 07:47

Anonymous Перейти к последнему сообщению

В этой теме нет новых непрочитанных сообщений. Скачать торрент Проверен [iPad] Не брать живым / Green Zone (Пол Гринграсс / Paul Greengrass ) [2010, Великобритания, Боевик, триллер, драма, военный, BDRip, SD (576p)] DUB + Original + sub (rus, eng)

в форуме Фильмы для iPod, iPhone, iPad, Размер: 2.39 ГБ, Здоровье: 100%

Гость

0
5|2

45
0

18 май 2015, 10:50

Гость Перейти к последнему сообщению

В этой теме нет новых непрочитанных сообщений. Скачать торрент Проверен Green Day - ¡Cuatro! [2013, Documentary, BDRip 1080p]

в форуме Концерты (HD-Video), Размер: 2.63 ГБ, Здоровье: 100%

Anonymous

0
5|1

0
0

23 окт 2016, 13:46

Anonymous Перейти к последнему сообщению

В этой теме нет новых непрочитанных сообщений. Скачать торрент Проверен Green Day - Awesome As F**k [2011, Punk Rock, BDRip, 1080p]

в форуме Концерты (HD-Video), Размер: 6.36 ГБ, Здоровье: 100%

Anonymous

0
1|0

0
0

23 окт 2016, 16:02

Anonymous Перейти к последнему сообщению



Сейчас этот форум просматривают: нет зарегистрированных пользователей и гости: 1


Вы не можете начинать темы
Вы не можете отвечать на сообщения
Вы не можете редактировать свои сообщения
Вы не можете удалять свои сообщения
Вы не можете добавлять вложения

Перейти:  

!ВНИМАНИЕ!
 Ресурс не предоставляет электронные версии произведений, а занимается лишь коллекционированием и каталогизацией ссылок, присылаемых и публикуемых на форуме нашими читателями. Если вы являетесь правообладателем какого-либо представленного материала и не желаете чтобы ссылка на него находилась в нашем каталоге, свяжитесь с нами и мы незамедлительно удалим её. Файлы для обмена на трекере предоставлены пользователями сайта, и администрация не несёт ответственности за их содержание. Просьба не заливать файлы, защищенные авторскими правами, а также файлы нелегального содержания!