На всех торрентах на трекере установлена скидка на скачивание в размере 100 процентов(а).
 Возможность скачивания торрента НЕ зависит от ограничений при низком ратио, низком аплоаде, требуемом ратио или требуемом аплоаде.


Начать новую тему Ответить на тему
Статистика раздачи
Размер: 4.6 ГБ | Добавлен: 22 фев 2014, 13:46 | Скачали: 0
Сидеров: 0  [0 байт/сек]    Личеров: 0  [0 байт/сек]
Пред. тема | След. тема 

Автор
Сообщение

СообщениеДобавлено: 22 фев 2014, 13:46 

Вкратце:
Хлоя – молодая женщина, чья жизнь сложилась не самым лучшим образом. Она управляет ночным мотелем, который приносит совсем мало прибыли, и сама прибирается в номерах. Вероятно, лучшим выходом из этой ситуации был бы переезд и новое место, но для Хлои это совершенно невозможно: у нее растет дочка, а бросаться на поиски новых возможностей с ребенком на руках – занятие сомнительное.

Так бы Хлоя и откладывала каждый лишний цент на будущее для дочери, если бы перемены, которых она так жаждала, сами не постучались к ней в дверь. Ее ночной мотель выбирают для себя двое преступников, один из которых вскоре погибает. После того, как сумку с деньгами, которую убийцы привезли с собой, похищают, оставшийся в живых преступник, вооруженный огнестрельным оружием, вынуждает Хлою помочь ему. Зрение подводит его, поэтому для того, чтобы прицелиться, стрелку нужна пара здоровых глаз, которыми и должна стать Хлоя, которая в случае успеха сможет выжить и, вероятно, начать все заново...


Название: Взгляд зимы
Оригинальное название: Cold Comes the Night
Год выпуска: 2013
Жанр: триллер, драма, криминал
Режиссер: Це Чун

В ролях: Элис Ив, Брайан Крэнстон, Логан Маршалл-Грин, Урсула Паркер, Лео Фицпатрик, Эрин Каммингс, Робин Тейлор, Сара Соколович, Марселин Хьюго





Выпущено: США
Продолжительность: 01:30:27
Озвучивание:
Любительское (одноголосое) [den904]
Любительское (одноголосое) [ХихиДок]


Формат: MKV
Качество: BDRip 720p [CHD]
Видео: 7060 kb/s, 1280х694
Аудио:
Russian [den904] / [ХиХидок]: AC3, 192 kb/s (2 ch)
English: DTS, 1510 kb/s (6 ch)
Субтитры: Russian [notabenoid], English
Дополнительно: Сохранены оригинальные чаптеры как на Blu-Ray
Размер: 4.60 GB
Скачать: Сэмпл

Релиз группы:




Общее
Cold.Comes.the.Night.2013.Blu.Ray.720p.CINEMANIA.mkv
Формат : Matroska
Версия формата : Version 4 / Version 2
Размер файла : 4,60 Гбайт
Продолжительность : 1 ч. 30 м.
Общий поток : 7286 Кбит/сек
Название фильма : Release Group CINEMANIA
Дата кодирования : UTC 2014-02-18 15:39:28
Программа кодирования : mkvmerge v6.7.0 ('Back to the Ground') 64bit built on Jan 8 2014 15:10:52
Библиотека кодирования : libebml v1.3.0 + libmatroska v1.4.1

Видео
Идентификатор : 1
Формат : AVC
Формат/Информация : Advanced Video Codec
Профиль формата : High@L4.1
Параметр CABAC формата : Да
Параметр ReFrames формата : 9 кадров
Идентификатор кодека : V_MPEG4/ISO/AVC
Продолжительность : 1 ч. 30 м.
Битрейт : 5396 Кбит/сек
Ширина : 1280 пикселей
Высота : 720 пикселей
Соотношение сторон : 16:9
Режим частоты кадров : Постоянный
Частота кадров : 23,976 кадра/сек
Цветовое пространство : YUV
Субдискретизация насыщенности : 4:2:0
Битовая глубина : 8 бит
Тип развёртки : Прогрессивная
Бит/(Пиксели*Кадры) : 0.244
Размер потока : 3,32 Гбайт (72%)
Заголовок : Release Group CINEMANIA
Библиотека кодирования : x264 core 138 r2356 a1d3d17
Настройки программы : cabac=1 / ref=9 / deblock=1:-3:-3 / analyse=0x3:0x113 / me=umh / subme=10 / psy=1 / psy_rd=1.00:0.05 / mixed_ref=1 / me_range=32 / chroma_me=1 / trellis=2 / 8x8dct=1 / cqm=0 / deadzone=21,11 / fast_pskip=0 / chroma_qp_offset=-2 / threads=18 / lookahead_threads=1 / sliced_threads=0 / nr=0 / decimate=1 / interlaced=0 / bluray_compat=0 / constrained_intra=0 / bframes=6 / b_pyramid=2 / b_adapt=2 / b_bias=0 / direct=3 / weightb=1 / open_gop=0 / weightp=2 / keyint=250 / keyint_min=23 / scenecut=40 / intra_refresh=0 / rc=2pass / mbtree=0 / bitrate=5396 / ratetol=1.0 / qcomp=0.70 / qpmin=0 / qpmax=69 / qpstep=4 / cplxblur=20.0 / qblur=0.5 / ip_ratio=1.40 / pb_ratio=1.30 / aq=2:0.90
Язык : English
Default : Да
Forced : Нет

Аудио #1
Идентификатор : 2
Формат : AC-3
Формат/Информация : Audio Coding 3
Расширение режима : CM (complete main)
Параметр Endianness формата : Big
Идентификатор кодека : A_AC3
Продолжительность : 1 ч. 30 м.
Вид битрейта : Постоянный
Битрейт : 192 Кбит/сек
Каналы : 2 канала
Расположение каналов : Front: L R
Частота : 48,0 КГц
Битовая глубина : 16 бит
Метод сжатия : С потерями
Размер потока : 124 Мбайт (3%)
Заголовок : den904
Язык : Russian
Default : Да
Forced : Да

Аудио #2
Идентификатор : 3
Формат : AC-3
Формат/Информация : Audio Coding 3
Расширение режима : CM (complete main)
Параметр Endianness формата : Big
Идентификатор кодека : A_AC3
Продолжительность : 1 ч. 30 м.
Вид битрейта : Постоянный
Битрейт : 192 Кбит/сек
Каналы : 2 канала
Расположение каналов : Front: L R
Частота : 48,0 КГц
Битовая глубина : 16 бит
Метод сжатия : С потерями
Размер потока : 124 Мбайт (3%)
Заголовок : ХиХиДок
Язык : Russian
Default : Нет
Forced : Нет

Аудио #3
Идентификатор : 4
Формат : DTS
Формат/Информация : Digital Theater Systems
Режим : 16
Параметр Endianness формата : Big
Идентификатор кодека : A_DTS
Продолжительность : 1 ч. 30 м.
Вид битрейта : Постоянный
Битрейт : 1509 Кбит/сек
Каналы : 6 каналов
Расположение каналов : Front: L C R, Side: L R, LFE
Частота : 48,0 КГц
Битовая глубина : 24 бит
Метод сжатия : С потерями
Размер потока : 976 Мбайт (21%)
Язык : English
Default : Нет
Forced : Нет

Текст #1
Идентификатор : 5
Формат : UTF-8
Идентификатор кодека : S_TEXT/UTF8
Идентификатор кодека/Информация : UTF-8 Plain Text
Заголовок : notabenoid
Язык : Russian
Default : Нет
Forced : Нет

Текст #2
Идентификатор : 6
Формат : UTF-8
Идентификатор кодека : S_TEXT/UTF8
Идентификатор кодека/Информация : UTF-8 Plain Text
Язык : English
Default : Нет
Forced : Нет

Меню
00:00:00.000 : en:00:00:00.000
00:06:12.956 : en:00:06:12.956
00:09:53.718 : en:00:09:53.718
00:11:29.856 : en:00:11:29.856
00:17:59.370 : en:00:17:59.370
00:24:12.368 : en:00:24:12.368
00:27:10.087 : en:00:27:10.087
00:32:03.839 : en:00:32:03.839
00:37:40.467 : en:00:37:40.467
00:42:18.661 : en:00:42:18.661
00:46:12.019 : en:00:46:12.019
00:51:01.767 : en:00:51:01.767
00:56:27.342 : en:00:56:27.342
01:04:35.997 : en:01:04:35.997
01:07:37.512 : en:01:07:37.512
01:15:16.721 : en:01:15:16.721

загрузка...
Правила, инструкции, FAQ!!!
Торрент  Добавлен [22 фев 2014, 13:46] Скачать торрент
Скачать торрент
[ Размер 23.6 КБ / Просмотров 7 ]

Статус  
 
Размер  4.6 ГБ
Приватный: Нет (DHT включён)
.torrent скачан  0
Как залить торрент? | Как скачать Torrent? | Как смотреть и слушать онлайн?  


     Отправить личное сообщение
   
Страница 1 из 1
Показать сообщения за:  Поле сортировки  
Начать новую тему Ответить на тему

   Похожие торренты   Автор   Ответы   Просмотры   Последнее сообщение 
В этой теме нет новых непрочитанных сообщений. Скачать торрент Взгляд зимы / Cold Comes the Night (2013) WEB-DLRip | L1

в форуме Триллеры, Размер: 1.37 ГБ, Здоровье: 0%

Anonymous

0
0|0

33
0

21 янв 2014, 14:16

Anonymous Перейти к последнему сообщению

В этой теме нет новых непрочитанных сообщений. Скачать торрент Проверен Холодная гора / Cold Mountain (2003) BDRip 720p | Лицензия

в форуме 720p | 1080p, Размер: 7.76 ГБ, Здоровье: 100%

Гость

0
29|3

62
35

01 сен 2015, 19:28

Гость Перейти к последнему сообщению

В этой теме нет новых непрочитанных сообщений. Скачать торрент Проверен Холод в июле / Cold in July (2014) BDRip 720p | Лицензия

в форуме 720p | 1080p, Размер: 2.41 ГБ, Здоровье: 100%

Гость

0
342|15

44
2435

26 дек 2014, 19:14

Гость Перейти к последнему сообщению

В этой теме нет новых непрочитанных сообщений. Скачать торрент Проверен Bee Gees - One Night Only [1997, Pop Rock, BDRip 720p]

в форуме Концерты (HD-Video), Размер: 4.36 ГБ, Здоровье: 100%

Anonymous

0
11|5

47
13

26 апр 2015, 22:48

Anonymous Перейти к последнему сообщению

В этой теме нет новых непрочитанных сообщений. Скачать торрент Проверен Хозяева ночи / We Own the Night (2007) BDRip 720p

в форуме 720p | 1080p, Размер: 5.75 ГБ, Здоровье: 22%

Anonymous

0
12|54

34
14

31 окт 2014, 19:38

Anonymous Перейти к последнему сообщению



Сейчас этот форум просматривают: нет зарегистрированных пользователей и гости: 2


Вы не можете начинать темы
Вы не можете отвечать на сообщения
Вы не можете редактировать свои сообщения
Вы не можете удалять свои сообщения
Вы не можете добавлять вложения

Перейти:  

!ВНИМАНИЕ!
 Ресурс не предоставляет электронные версии произведений, а занимается лишь коллекционированием и каталогизацией ссылок, присылаемых и публикуемых на форуме нашими читателями. Если вы являетесь правообладателем какого-либо представленного материала и не желаете чтобы ссылка на него находилась в нашем каталоге, свяжитесь с нами и мы незамедлительно удалим её. Файлы для обмена на трекере предоставлены пользователями сайта, и администрация не несёт ответственности за их содержание. Просьба не заливать файлы, защищенные авторскими правами, а также файлы нелегального содержания!