На всех торрентах на трекере установлена скидка на скачивание в размере 100 процентов(а).
 Возможность скачивания торрента НЕ зависит от ограничений при низком ратио, низком аплоаде, требуемом ратио или требуемом аплоаде.


Начать новую тему Ответить на тему
Статистика раздачи
Размер: 2.61 ГБ | Добавлен: 22 фев 2014, 08:07 | Скачали: 0
Сидеров: 0  [0 байт/сек]    Личеров: 0  [0 байт/сек]
Пред. тема | След. тема 

Автор
Сообщение

СообщениеДобавлено: 22 фев 2014, 08:07 

О фильме:
Два брата получают от покойного отца в наследство дом, но на пути туда они даже не подозревали, что будут вынуждены столкнуться с очень странными видениями...



Название: Колумбарий
Оригинальное название: Columbarium
Год выхода: 2012
Жанр: фэнтези, триллер, драма
Режиссер: Стив Керр

В ролях: Давид Бутен, Пьер Коллин, Жильбер Комтуа, Максим Дюмонтье, Джанет Лэйн, Милен Сен-Совер, Катерина Яле




Выпущено: Канада
Продолжительность: 01:24:24
Озвучивание:
Любительское (двухголосое) [DeadSno & den904] - перевод на русский язык [Антонио]


Формат: MKV
Качество: WEB-DL 720p [HD4FUN]
Видео: 3736 kb/s, 1280x544
Аудио: Russian: AC3, 192 kb/s (2 ch) / French: AC3, 384 kb/s (6 ch)
Субтитры: English
Дополнительно: Сохранены оригинальные чаптеры как на Blu-Ray

Скачать: Сэмпл

Релиз группы:



Общее
Columbarium.2012.WEB-DL.720p.CINEMANIA.mkv
Формат : Matroska
Версия формата : Version 4 / Version 2
Размер файла : 2,61 Гбайт
Продолжительность : 1 ч. 24 м.
Общий поток : 4400 Кбит/сек
Название фильма : Release Group CINEMANIA
Дата кодирования : UTC 2014-02-21 22:41:08
Программа кодирования : mkvmerge v6.7.0 ('Back to the Ground') 64bit built on Jan 8 2014 15:10:52
Библиотека кодирования : libebml v1.3.0 + libmatroska v1.4.1

Видео
Идентификатор : 1
Формат : AVC
Формат/Информация : Advanced Video Codec
Профиль формата : Main@L3.1
Параметр CABAC формата : Нет
Параметр ReFrames формата : 2 кадра
Идентификатор кодека : V_MPEG4/ISO/AVC
Продолжительность : 1 ч. 24 м.
Битрейт : 3736 Кбит/сек
Ширина : 1280 пикселей
Высота : 544 пикселя
Соотношение сторон : 2,35:1
Режим частоты кадров : Постоянный
Частота кадров : 23,976 кадра/сек
Цветовое пространство : YUV
Субдискретизация насыщенности : 4:2:0
Битовая глубина : 8 бит
Тип развёртки : Прогрессивная
Бит/(Пиксели*Кадры) : 0.224
Размер потока : 2,22 Гбайт (85%)
Заголовок : Release Group CINEMANIA
Язык : English
Default : Да
Forced : Нет
Основные цвета : BT.709
Характеристики трансфера : BT.709
Коэффициенты матрицы : BT.709

Аудио #1
Идентификатор : 2
Формат : AC-3
Формат/Информация : Audio Coding 3
Расширение режима : CM (complete main)
Параметр Endianness формата : Big
Идентификатор кодека : A_AC3
Продолжительность : 1 ч. 24 м.
Вид битрейта : Постоянный
Битрейт : 192 Кбит/сек
Каналы : 2 канала
Расположение каналов : Front: L R
Частота : 48,0 КГц
Битовая глубина : 16 бит
Метод сжатия : С потерями
Размер потока : 117 Мбайт (4%)
Заголовок : den904 & DeadSno
Язык : Russian
Default : Да
Forced : Да

Аудио #2
Идентификатор : 3
Формат : AC-3
Формат/Информация : Audio Coding 3
Расширение режима : CM (complete main)
Параметр Endianness формата : Big
Идентификатор кодека : A_AC3
Продолжительность : 1 ч. 24 м.
Вид битрейта : Постоянный
Битрейт : 384 Кбит/сек
Каналы : 6 каналов
Расположение каналов : Front: L C R, Side: L R, LFE
Частота : 48,0 КГц
Битовая глубина : 16 бит
Метод сжатия : С потерями
Размер потока : 233 Мбайт (9%)
Язык : French
Default : Нет
Forced : Нет

Текст
Идентификатор : 4
Формат : UTF-8
Идентификатор кодека : S_TEXT/UTF8
Идентификатор кодека/Информация : UTF-8 Plain Text
Язык : English
Default : Нет
Forced : Нет

Меню
00:00:00.000 : en:G茅n茅rique
00:05:34.000 : en:Un camion noir
00:10:34.000 : en:Au chalet
00:16:13.000 : en:Un nouveau travail
00:22:06.000 : en:Le r锚ve
00:26:30.000 : en:Le premier jour
00:30:15.000 : en:Le r么le de policier
00:34:16.000 : en:Dieu et l'argent
00:40:14.000 : en:Un tour de chaloupe
00:45:43.000 : en:Dans la for锚t
00:52:16.000 : en:Le fr猫re
00:57:36.000 : en:Les feux d'artifice
01:02:28.000 : en:Attach茅
01:09:58.000 : en:Le columbarium
01:15:48.000 : en:Le dernier jour
01:22:13.000 : en:Fin
загрузка...
Правила, инструкции, FAQ!!!
Торрент  Добавлен [22 фев 2014, 08:07] Скачать торрент
Скачать торрент
[ Размер 13.61 КБ / Просмотров 4 ]

Статус  
 
Размер  2.61 ГБ
Приватный: Нет (DHT включён)
.torrent скачан  0
Как залить торрент? | Как скачать Torrent? | Как смотреть и слушать онлайн?  


     Отправить личное сообщение
   
Страница 1 из 1
Показать сообщения за:  Поле сортировки  
Начать новую тему Ответить на тему

   Похожие торренты   Автор   Ответы   Просмотры   Последнее сообщение 
В этой теме нет новых непрочитанных сообщений. Скачать торрент Проверен Linkin Park - Burn It Down (Live at Billboard Music Awards 2012) HD 720p [2012, Alternative, HDTVRip 720p]

в форуме Концерты (HD-Video), Размер: 108.98 МБ, Здоровье: 100%

Anonymous

0
1|0

4
0

23 окт 2016, 11:24

Anonymous Перейти к последнему сообщению

В этой теме нет новых непрочитанных сообщений. Скачать торрент Проверен Heaven Shall Burn - Area4 Festival, Germany, 2012 - HD 720p [2012, Metalcore, HDTV 720p]

в форуме Концерты (HD-Video), Размер: 1.2 ГБ, Здоровье: 0%

Anonymous

0
0|0

0
0

23 окт 2016, 13:02

Anonymous Перейти к последнему сообщению

В этой теме нет новых непрочитанных сообщений. Скачать торрент Проверен Linkin Park - Burn It Down (Live at Billboard Music Awards 2012) HDTV 720p [2012, Alternative, HDTV 720p]

в форуме Концерты (HD-Video), Размер: 272.45 МБ, Здоровье: 100%

Anonymous

0
1|0

2
0

23 окт 2016, 11:38

Anonymous Перейти к последнему сообщению

В этой теме нет новых непрочитанных сообщений. Скачать торрент Проверен Aerosmith - Legendary Child & Walk This Way (Live on American Idol) (Fox 720p) [2012, Hard Rock, HDTV 720p]

в форуме Концерты (HD-Video), Размер: 670.75 МБ, Здоровье: 100%

Anonymous

0
1|0

0
0

23 окт 2016, 11:53

Anonymous Перейти к последнему сообщению

В этой теме нет новых непрочитанных сообщений. Скачать торрент Проверен Linkin Park - Rock in Rio 2012 HDTVRip 720p [2012, Alternative - Rock, HDTVRip 720p]

в форуме Концерты (HD-Video), Размер: 4.47 ГБ, Здоровье: 100%

Anonymous

0
1|0

3
0

23 окт 2016, 11:09

Anonymous Перейти к последнему сообщению



Сейчас этот форум просматривают: нет зарегистрированных пользователей и гости: 5


Вы не можете начинать темы
Вы не можете отвечать на сообщения
Вы не можете редактировать свои сообщения
Вы не можете удалять свои сообщения
Вы не можете добавлять вложения

Перейти:  

!ВНИМАНИЕ!
 Ресурс не предоставляет электронные версии произведений, а занимается лишь коллекционированием и каталогизацией ссылок, присылаемых и публикуемых на форуме нашими читателями. Если вы являетесь правообладателем какого-либо представленного материала и не желаете чтобы ссылка на него находилась в нашем каталоге, свяжитесь с нами и мы незамедлительно удалим её. Файлы для обмена на трекере предоставлены пользователями сайта, и администрация не несёт ответственности за их содержание. Просьба не заливать файлы, защищенные авторскими правами, а также файлы нелегального содержания!