На всех торрентах на трекере установлена скидка на скачивание в размере 100 процентов(а).
 Возможность скачивания торрента НЕ зависит от ограничений при низком ратио, низком аплоаде, требуемом ратио или требуемом аплоаде.


Начать новую тему Ответить на тему
Статистика раздачи
Размер: 6.82 ГБ | Добавлен: 21 фев 2014, 15:27 | Скачали: 0
Сидеров: 1  [0 байт/сек]    Личеров: 1  [0 байт/сек]
Пред. тема | След. тема 

Автор
Сообщение

СообщениеДобавлено: 21 фев 2014, 15:27 

Страна: США
Год выпуска: 1993
Жанр: драма, комедия, семейный, спорт
Продолжительность: 01:37:01

Перевод 1: Профессиональный (многоголосый, закадровый) - лицензия
Перевод 2: Авторский (одноголосый, закадровый) - Лев Ренник
Субтитры: русский, английский, испанский, французкий (forced)

Режиссер: Дэвид М. Эванс / David M. Evans

В ролях: Том Гайри (Scotty Smalls), Майк Витар (Benjamin Franklin Rodriguez), Патрик Ренна (Hamilton 'Ham' Porter), Чонси Леопарди (Michael 'Squints' Palledorous), Марти Йорк (Alan 'Yeah-Yeah' McClennan), Брэндон Квинтин Адамс (Kenny DeNunez), Грант Гельт (Bertram Grover Weeks), Shane Obedzinski (Tommy 'Repeat' Timmons), Виктор ДиМаттья (Timmy Timmons), Денис Лири (Bill), Карен Аллен (Mom), Джеймс Эрл Джонс (Mr. Mertle)

Описание: Летом 1962 года после окончания 5-го класса мальчик Скотти вместе с матерью переезжает в другой штат к отчиму Биллу. Все друзья остались за тысячу километров, поэтому, естественно, нужно подружиться с местными ребятами, и, благо, есть повод: целыми днями они играют в бейсбол на местном пустыре, и команда у них неполная — не хватает ровно одного человека.
Самый старший из них — Бенджамин Франклин Родригес, он заводила, их лидер и неутомимый тренер. Бенджамин был просто фанатом бейсбола и при это славным малым — он охотно принял Скотти в команду, хотя тот и не умел играть, но страстно мечтал этому научиться…






Исходник: BDRemux
Качество: BDRip 720p
Формат: MKV

Видео: 1280x544 (16:9), H264 ~ 7 500 Kbps, 23.976 fps
Аудио 1: Dolby Digital Audio Russian 5.1 / 48 kHz / 448 kbps (многоголосый, закадровый R5)
Аудио 2: Dolby Digital Audio Russian 2.0 / 48 kHz / 192 kbps Авторский (одноголосый, закадровый, Лев Ренник)
Аудио 3: DTS English 5.1 / 48 kHz / 1536 kbps
Формат субтитров: SoftSub (srt)
Общее
Полное имя : Ploshadka.1993Ploshadka.1993.P.BDRip720p.mkv
Формат : Matroska
Версия формата : Version 2
Размер файла : 6,82 Гбайт
Продолжительность : 1 ч. 41 м.
Общий поток : 9648 Кбит/сек
Название фильма : Ploshadka.1993.P.BDRip720p AVP Studio
Дата кодирования : UTC 2012-03-30 16:10:10
Программа кодирования : mkvmerge v5.2.0 ('I can't explain') built on Dec 18 2011 18:12:03
Библиотека кодирования : libebml v1.2.3 + libmatroska v1.3.0

Видео
Идентификатор : 1
Формат : AVC
Формат/Информация : Advanced Video Codec
Профиль формата : High@L4.1
Параметр CABAC формата : Да
Параметр ReFrames формата : 12 кадров
Идентификатор кодека : V_MPEG4/ISO/AVC
Продолжительность : 1 ч. 41 м.
Битрейт : 7500 Кбит/сек
Ширина : 1280 пикселей
Высота : 544 пикселя
Соотношение сторон : 2,35:1
Частота кадров : 23,976 кадра/сек
Цветовое пространство : YUV
Субдискретизация насыщенности : 4:2:0
Битовая глубина : 8 бит
Тип развёртки : Прогрессивная
Бит/(Пиксели*Кадры) : 0.449
Размер потока : 5,16 Гбайт (76%)
Заголовок : Источник BDRemux
Библиотека кодирования : x264 core 114 r1913 5fd3dce
Настройки программы : cabac=1 / ref=12 / deblock=1:-3:-3 / analyse=0x3:0x113 / me=umh / subme=9 / psy=1 / psy_rd=1.20:0.00 / mixed_ref=1 / me_range=16 / chroma_me=1 / trellis=2 / 8x8dct=1 / cqm=0 / deadzone=21,11 / fast_pskip=0 / chroma_qp_offset=-2 / threads=6 / sliced_threads=0 / nr=0 / decimate=0 / interlaced=0 / constrained_intra=0 / bframes=8 / b_pyramid=2 / b_adapt=2 / b_bias=0 / direct=3 / weightb=1 / open_gop=0 / weightp=2 / keyint=250 / keyint_min=23 / scenecut=40 / intra_refresh=0 / rc=2pass / mbtree=0 / bitrate=7500 / ratetol=1.0 / qcomp=0.60 / qpmin=0 / qpmax=69 / qpstep=4 / cplxblur=20.0 / qblur=0.5 / ip_ratio=1.40 / pb_ratio=1.30 / aq=1:0.50
Язык : English
Default : Да
Forced : Нет

Аудио #1
Идентификатор : 2
Формат : AC-3
Формат/Информация : Audio Coding 3
Расширение режима : CM (complete main)
Идентификатор кодека : A_AC3
Продолжительность : 1 ч. 41 м.
Вид битрейта : Постоянный
Битрейт : 448 Кбит/сек
Каналы : 6 каналов
Расположение каналов : Front: L C R, Side: L R, LFE
Частота : 48,0 КГц
Битовая глубина : 16 бит
Метод сжатия : С потерями
Размер потока : 324 Мбайт (5%)
Заголовок : Источник DVD
Язык : Russian
Default : Да
Forced : Нет

Аудио #2
Идентификатор : 3
Формат : AC-3
Формат/Информация : Audio Coding 3
Расширение режима : CM (complete main)
Идентификатор кодека : A_AC3
Продолжительность : 1 ч. 41 м.
Вид битрейта : Постоянный
Битрейт : 192 Кбит/сек
Каналы : 2 канала
Расположение каналов : Front: L R
Частота : 48,0 КГц
Битовая глубина : 16 бит
Метод сжатия : С потерями
Размер потока : 139 Мбайт (2%)
Заголовок : AC3 2.0 192 kbps |Авторский закадровый, Лев Ренник|
Язык : Russian
Default : Нет
Forced : Нет

Аудио #3
Идентификатор : 4
Формат : DTS
Формат/Информация : Digital Theater Systems
Идентификатор кодека : A_DTS
Продолжительность : 1 ч. 41 м.
Вид битрейта : Постоянный
Битрейт : 1510 Кбит/сек
Каналы : 6 каналов
Расположение каналов : Front: L C R, Side: L R, LFE
Частота : 48,0 КГц
Битовая глубина : 24 бит
Метод сжатия : С потерями
Размер потока : 1,07 Гбайт (16%)
Заголовок : Источник BDRemux
Язык : English
Default : Нет
Forced : Нет

Текст #1
Идентификатор : 5
Формат : UTF-8
Идентификатор кодека : S_TEXT/UTF8
Идентификатор кодека/Информация : UTF-8 Plain Text
Заголовок : Источник DVD
Язык : Russian
Default : Нет
Forced : Нет

Текст #2
Идентификатор : 6
Формат : UTF-8
Идентификатор кодека : S_TEXT/UTF8
Идентификатор кодека/Информация : UTF-8 Plain Text
Заголовок : Источник BDRemux
Язык : English
Default : Нет
Forced : Нет

Текст #3
Идентификатор : 7
Формат : UTF-8
Идентификатор кодека : S_TEXT/UTF8
Идентификатор кодека/Информация : UTF-8 Plain Text
Заголовок : Источник BDRemux
Язык : Spanish
Default : Нет
Forced : Нет

Текст #4
Идентификатор : 8
Формат : UTF-8
Идентификатор кодека : S_TEXT/UTF8
Идентификатор кодека/Информация : UTF-8 Plain Text
Заголовок : Forced subs only
Язык : French
Default : Нет
Forced : Нет

Меню
00:00:00.000 : en:00:00:00.000
00:03:00.972 : en:00:03:00.972
00:04:59.090 : en:00:04:59.090
00:08:28.341 : en:00:08:28.341
00:10:23.289 : en:00:10:23.289
00:13:40.278 : en:00:13:40.278
00:16:16.392 : en:00:16:16.392
00:23:35.581 : en:00:23:35.581
00:29:02.866 : en:00:29:02.866
00:33:09.905 : en:00:33:09.905
00:35:32.255 : en:00:35:32.255
00:41:42.250 : en:00:41:42.250
00:44:12.275 : en:00:44:12.275
00:48:53.097 : en:00:48:53.097
00:53:20.656 : en:00:53:20.656
00:55:33.038 : en:00:55:33.038
01:00:58.864 : en:01:00:58.864
01:02:52.102 : en:01:02:52.102
01:06:07.130 : en:01:06:07.130
01:09:18.863 : en:01:09:18.863
01:11:14.979 : en:01:11:14.979
01:14:20.498 : en:01:14:20.498
01:17:44.076 : en:01:17:44.076
01:26:39.486 : en:01:26:39.486
01:28:50.367 : en:01:28:50.367
01:33:17.383 : en:01:33:17.383
01:34:10.228 : en:01:34:10.228
01:37:22.837 : en:01:37:22.837


загрузка...
Правила, инструкции, FAQ!!!
Торрент  Добавлен [21 фев 2014, 15:27] Скачать торрент
Скачать торрент
[ Размер 17.71 КБ / Просмотров 9 ]

Статус  
 
Размер  6.82 ГБ
Приватный: Нет (DHT включён)
.torrent скачан  0
Как залить торрент? | Как скачать Torrent? | Как смотреть и слушать онлайн?  


     Отправить личное сообщение
   
Страница 1 из 1
Показать сообщения за:  Поле сортировки  
Начать новую тему Ответить на тему

   Похожие торренты   Автор   Ответы   Просмотры   Последнее сообщение 
В этой теме нет новых непрочитанных сообщений. Скачать торрент Проверен Сирены / Sirens (1993) BDRip 720p | P

в форуме 720p | 1080p, Размер: 6.74 ГБ, Здоровье: 100%

Anonymous

0
51|7

48
622

07 сен 2014, 11:35

Anonymous Перейти к последнему сообщению

В этой теме нет новых непрочитанных сообщений. Скачать торрент Проверен Хронос / Cronos (1993) BDRip 720p

в форуме 720p | 1080p, Размер: 8.25 ГБ, Здоровье: 11%

Гость

0
12|103

60
73

21 фев 2015, 18:45

Гость Перейти к последнему сообщению

В этой теме нет новых непрочитанных сообщений. Скачать торрент Проверен Пришельцы / Les Visiteurs (1993) BDRip 720p

в форуме 720p | 1080p, Размер: 4.51 ГБ, Здоровье: 88%

Гость

0
40|45

90
32

19 авг 2015, 23:03

Гость Перейти к последнему сообщению

В этой теме нет новых непрочитанных сообщений. Скачать торрент Проверен День сурка / Groundhog Day (1993) BDRip 720p | P

в форуме 720p | 1080p, Размер: 3.33 ГБ, Здоровье: 100%

Anonymous

0
90|5

41
67

21 май 2015, 10:30

Anonymous Перейти к последнему сообщению

В этой теме нет новых непрочитанных сообщений. Скачать торрент Фирма / The Firm (1993) BDRip 720p | Лицензия

в форуме 720p | 1080p, Размер: 6.69 ГБ, Здоровье: 0%

Anonymous

0
0|0

18
0

07 янв 2014, 20:48

Anonymous Перейти к последнему сообщению



Сейчас этот форум просматривают: нет зарегистрированных пользователей и гости: 3


Вы не можете начинать темы
Вы не можете отвечать на сообщения
Вы не можете редактировать свои сообщения
Вы не можете удалять свои сообщения
Вы не можете добавлять вложения

Перейти:  

!ВНИМАНИЕ!
 Ресурс не предоставляет электронные версии произведений, а занимается лишь коллекционированием и каталогизацией ссылок, присылаемых и публикуемых на форуме нашими читателями. Если вы являетесь правообладателем какого-либо представленного материала и не желаете чтобы ссылка на него находилась в нашем каталоге, свяжитесь с нами и мы незамедлительно удалим её. Файлы для обмена на трекере предоставлены пользователями сайта, и администрация не несёт ответственности за их содержание. Просьба не заливать файлы, защищенные авторскими правами, а также файлы нелегального содержания!