На всех торрентах на трекере установлена скидка на скачивание в размере 100 процентов(а).
 Возможность скачивания торрента НЕ зависит от ограничений при низком ратио, низком аплоаде, требуемом ратио или требуемом аплоаде.


Начать новую тему Ответить на тему
Статистика раздачи
Размер: 9.71 ГБ | Добавлен: 20 фев 2014, 22:42 | Скачали: 0
Сидеров: 0  [0 байт/сек]    Личеров: 0  [0 байт/сек]
Пред. тема | След. тема 

Автор
Сообщение

СообщениеДобавлено: 20 фев 2014, 22:42 

Вкратце:
История о юной девушке, которая встречает женщину с необычной внешностью. Под впечатлением от нового знакомства девушка решает, что ей тоже необходимо покрасить волосы в ярко-синий цвет. Разумеется, такие перемены вовсе не нужны родителям, которые всеми силами стараются убедить дочь в том, что та выбрала неправильный путь. И у них есть для этого основания, ведь юная Адель полюбила не только синий цвет, но и обладательницу синих волос…



Название: Жизнь Адель
Оригинальное название: La vie dAdele - Chapitres 1 et 2 / Blue Is the Warmest Color
Жанр: драма, мелодрама
Год выпуска: 2013
Режиссёр: Абделатиф Кешиш

В ролях: Адель Экзаркопулос, Леа Сейду, Салим Кешьюш, Орельен Рекуан, Кэтрин Сали, Бенжамин Сиксу, Мона Валравенс, Альма, Жодоровски, Жереми Лаэрт, Энн Лорье




Выпущено: Франция, Бельгия, Испания
Продолжительность: 03:00:08
Озвучивание: Любительское (одноголосое) [Pashaup]


Формат: MKV
Качество: BDRip 720p [CtrlHD]
Видео: 5861 kb/s, 1280x538
Аудио: Russian: AC3, 192 kb/s (2 ch) / French: DTS, 1510 kb/s (6 ch)
Субтитры: English, Russian [Inkantatem]
Дополнительно: Сохранены оригинальные чаптеры как на Blu-Ray

Скачать: Сэмпл

Релиз группы:



Общее
Blue.Is.the.Warmest.Color.2013.Blu.Ray.720p.CINEMANIA.mkv
Формат : Matroska
Версия формата : Version 4 / Version 2
Размер файла : 9,71 Гбайт
Продолжительность : 3 ч. 0 м.
Общий поток : 7715 Кбит/сек
Название фильма : Release Group CINEMANIA
Дата кодирования : UTC 2014-02-20 18:05:23
Программа кодирования : mkvmerge v6.7.0 ('Back to the Ground') 64bit built on Jan 8 2014 15:10:52
Библиотека кодирования : libebml v1.3.0 + libmatroska v1.4.1

Видео
Идентификатор : 1
Формат : AVC
Формат/Информация : Advanced Video Codec
Профиль формата : High@L4.1
Параметр CABAC формата : Да
Параметр ReFrames формата : 12 кадров
Идентификатор кодека : V_MPEG4/ISO/AVC
Продолжительность : 3 ч. 0 м.
Битрейт : 5861 Кбит/сек
Ширина : 1280 пикселей
Высота : 538 пикселей
Соотношение сторон : 2,40:1
Режим частоты кадров : Постоянный
Частота кадров : 23,976 кадра/сек
Цветовое пространство : YUV
Субдискретизация насыщенности : 4:2:0
Битовая глубина : 8 бит
Тип развёртки : Прогрессивная
Бит/(Пиксели*Кадры) : 0.355
Размер потока : 7,37 Гбайт (76%)
Заголовок : Release Group CINEMANIA
Библиотека кодирования : x264 core 142 r2389kMod 956c8d8
Настройки программы : cabac=1 / ref=12 / deblock=1:-3:-3 / analyse=0x3:0x133 / me=umh / subme=10 / psy=1 / fade_compensate=0.00 / psy_rd=1.05:0.00 / mixed_ref=1 / me_range=16 / chroma_me=1 / trellis=2 / 8x8dct=1 / cqm=0 / deadzone=21,11 / fast_pskip=0 / chroma_qp_offset=-2 / threads=6 / lookahead_threads=1 / sliced_threads=0 / nr=0 / decimate=0 / interlaced=0 / bluray_compat=0 / constrained_intra=0 / fgo=0 / bframes=6 / b_pyramid=2 / b_adapt=2 / b_bias=0 / direct=3 / weightb=1 / open_gop=0 / weightp=2 / keyint=250 / keyint_min=23 / scenecut=40 / intra_refresh=0 / rc=crf / mbtree=0 / crf=15.0000 / qcomp=0.80 / qpmin=0 / qpmax=69 / qpstep=4 / ip_ratio=1.10 / pb_ratio=1.10 / aq=1:0.80
Язык : French
Default : Нет
Forced : Нет

Аудио #1
Идентификатор : 2
Формат : AC-3
Формат/Информация : Audio Coding 3
Расширение режима : CM (complete main)
Параметр Endianness формата : Big
Идентификатор кодека : A_AC3
Продолжительность : 3 ч. 0 м.
Вид битрейта : Постоянный
Битрейт : 192 Кбит/сек
Каналы : 2 канала
Расположение каналов : Front: L R
Частота : 48,0 КГц
Битовая глубина : 16 бит
Метод сжатия : С потерями
Размер потока : 247 Мбайт (2%)
Заголовок : Pashaup
Язык : Russian
Default : Да
Forced : Да

Аудио #2
Идентификатор : 3
Формат : DTS
Формат/Информация : Digital Theater Systems
Режим : 16
Параметр Endianness формата : Big
Идентификатор кодека : A_DTS
Продолжительность : 3 ч. 0 м.
Вид битрейта : Постоянный
Битрейт : 1509 Кбит/сек
Каналы : 6 каналов
Расположение каналов : Front: L C R, Side: L R, LFE
Частота : 48,0 КГц
Битовая глубина : 24 бит
Метод сжатия : С потерями
Размер потока : 1,90 Гбайт (20%)
Язык : French
Default : Нет
Forced : Нет

Текст #1
Идентификатор : 4
Формат : UTF-8
Идентификатор кодека : S_TEXT/UTF8
Идентификатор кодека/Информация : UTF-8 Plain Text
Язык : English
Default : Нет
Forced : Нет

Текст #2
Идентификатор : 5
Формат : UTF-8
Идентификатор кодека : S_TEXT/UTF8
Идентификатор кодека/Информация : UTF-8 Plain Text
Заголовок : Inkantatem
Язык : Russian
Default : Нет
Forced : Нет

Меню
00:00:00.000 : en: 1. Emptiness
00:08:04.234 : en: 2. Thomas
00:11:50.585 : en: 3. Blue angel
00:19:26.665 : en: 4. Faking everything
00:28:52.981 : en: 5. A great day
00:36:42.909 : en: 6. No gender
00:43:00.578 : en: 7. Curious
00:53:38.048 : en: 8. Defined by actions
01:02:22.656 : en: 9. Phony friends
01:08:34.736 : en:10. Preferences
01:14:54.198 : en:11. First time
01:21:46.652 : en:12. Happiness
01:25:02.597 : en:13. To love
01:31:55.343 : en:14. Eighteen
01:34:52.270 : en:15. Fooling the family
01:41:49.353 : en:16. Teacher
01:44:57.166 : en:17. Out of place
02:03:49.797 : en:18. Feeling alone
02:10:48.924 : en:19. Tensions
02:13:57.196 : en:20. Breakup
02:21:30.691 : en:21. Adrift
02:31:42.719 : en:22. Separate ways
02:46:30.314 : en:23 Old and new

загрузка...
Правила, инструкции, FAQ!!!
Торрент  Добавлен [20 фев 2014, 22:42] Скачать торрент
Скачать торрент
[ Размер 49.13 КБ / Просмотров 8 ]

Статус  
 
Размер  9.71 ГБ
Приватный: Нет (DHT включён)
.torrent скачан  0
Как залить торрент? | Как скачать Torrent? | Как смотреть и слушать онлайн?  


     Отправить личное сообщение
   
Страница 1 из 1
Показать сообщения за:  Поле сортировки  
Начать новую тему Ответить на тему

   Похожие торренты   Автор   Ответы   Просмотры   Последнее сообщение 
В этой теме нет новых непрочитанных сообщений. Скачать торрент Жизнь Адель / La vie d'Adèle - Chapitres 1 et 2 (2013) BDRip 720p | L1

в форуме 720p | 1080p, Размер: 6.85 ГБ, Здоровье: 100%

Anonymous

0
2|0

19
10

20 фев 2014, 19:06

Anonymous Перейти к последнему сообщению

В этой теме нет новых непрочитанных сообщений. Скачать торрент Жизнь Адель / La vie d'Adèle - Chapitres 1 et 2 (2013) HDRip | L1

в форуме Драмы, Мелодрамы, Размер: 1.47 ГБ, Здоровье: 0%

Anonymous

0
0|0

25
1

20 фев 2014, 18:58

Anonymous Перейти к последнему сообщению

В этой теме нет новых непрочитанных сообщений. Скачать торрент Жизнь короля / Life of a King (2013) BDRip 720p | L1

в форуме 720p | 1080p, Размер: 5.25 ГБ, Здоровье: 0%

Anonymous

0
0|0

37
0

09 мар 2014, 08:58

Anonymous Перейти к последнему сообщению

В этой теме нет новых непрочитанных сообщений. Скачать торрент Проверен [Lynda.com] The Art of Color Correction: Artistic Color Grading on the Timeline [June 2013, ENG]

в форуме Работа с видео, Размер: 1.55 ГБ, Здоровье: 0%

Anonymous

0
0|0

0
0

19 авг 2016, 22:39

Anonymous Перейти к последнему сообщению

В этой теме нет новых непрочитанных сообщений. Скачать торрент Синий каприз / Blue Caprice (2013) BDRip 720p | L1

в форуме 720p | 1080p, Размер: 4.49 ГБ, Здоровье: 100%

Anonymous

0
2|0

39
24

21 мар 2014, 08:15

Anonymous Перейти к последнему сообщению



Сейчас этот форум просматривают: нет зарегистрированных пользователей и гости: 1


Вы не можете начинать темы
Вы не можете отвечать на сообщения
Вы не можете редактировать свои сообщения
Вы не можете удалять свои сообщения
Вы не можете добавлять вложения

Перейти:  

!ВНИМАНИЕ!
 Ресурс не предоставляет электронные версии произведений, а занимается лишь коллекционированием и каталогизацией ссылок, присылаемых и публикуемых на форуме нашими читателями. Если вы являетесь правообладателем какого-либо представленного материала и не желаете чтобы ссылка на него находилась в нашем каталоге, свяжитесь с нами и мы незамедлительно удалим её. Файлы для обмена на трекере предоставлены пользователями сайта, и администрация не несёт ответственности за их содержание. Просьба не заливать файлы, защищенные авторскими правами, а также файлы нелегального содержания!