На всех торрентах на трекере установлена скидка на скачивание в размере 100 процентов(а).
 Возможность скачивания торрента НЕ зависит от ограничений при низком ратио, низком аплоаде, требуемом ратио или требуемом аплоаде.


Начать новую тему Ответить на тему
Статистика раздачи
Размер: 15.76 ГБ | Добавлен: 20 фев 2014, 22:22 | Скачали: 10
Сидеров: 9  [0 байт/сек]    Личеров: 0  [0 байт/сек]
Пред. тема | След. тема 

Автор
Сообщение

СообщениеДобавлено: 20 фев 2014, 22:22 

Название: Али
Оригинальное название: Ali
Год выпуска: 2001
Жанр: Драма, биография, спорт
Выпущено: США, Warner Bros. Pictures, Vitaphone Corporation, The, Leon Schlesinger Studios See more
Режиссер: Майкл Манн
В ролях: Уилл Смит, Джейми Фокс, Джон Войт, Марио Ван Пиблз, Рон Сильвер, Джеффри Райт, Майкелти Уильямсон, Джада Пинкетт Смит, Нона Гей, Майкл Мишель, Джо Мортон, Пол Родригез, Брюс МакГилл, Бэрри Шебака Хенли, Джанкарло Эспозито, Лоуренс Мэйсон
Перевод: Дублированный

Сюжет фильма

Фильм рассказывает о жизни одного из самых выдающихся боксеров современности Мухаммеда Али (Уилл Смит). Со своим разумом и спортивным гением, дерзкой яростью и скрытой привлекательностью он навсегда оставил след в истории Америки. Фильм рассказывает не только о развитии спортивной карьеры этого прославленного боксера, но и о его обычной каждодневной жизни, со всеми удачами и промахами. Продвижение к славе, существовавшее в Америке в 60-е годы расовое неравенство, неудачи Али как мужа, друга и просто как человека, его участие в политической и общественной жизни страны - все это должно предстать на экране перед зрителями. В основу фильма легли события периода с 1964 по 1974, наиболее шумного десятилетия из жизни Мухаммеда Али, начиная с его первых побед на ринге и заканчивая его героическим возвращением в большой спорт по прошествии 10 лет тяжелых испытаний, выпавших на его долю.



Файл
Качество: BDRip 1080p (исходник Blu-ray)
Видео: 1920x816, 13322 Кбит/сек, 23.976 кадр/сек, AVC, x264, High@L4.1, 0.347 Бит/[Пиксели*Кадры]
Аудио 1: AC3 5.1 48 kHz 448 kbps - Дублированный
Аудио 2: AC3 5.1 48 kHz 640 kbps - English
Чаптеры: есть
Субтитры: Russian
Продолжительность: 02:36:35
Автор рипа: Сообщество:


Format : Matroska
Format version : Version 2
File size : 15.8 GiB
Duration : 2h 36mn
Overall bit rate : 14.4 Mbps
Movie name : Ali.(2001).BDRip.1080p.[denis100]
Encoded date : UTC 2014-02-20 15:40:59
Writing application : mkvmerge v5.8.0 ('No Sleep / Pillow') built on Sep 2 2012 15:37:04
Writing library : libebml v1.2.3 + libmatroska v1.3.0

Video
ID : 1
Format : AVC
Format/Info : Advanced Video Codec
Format profile : High@L4.1
Format settings, CABAC : Yes
Format settings, ReFrames : 5 frames
Codec ID : V_MPEG4/ISO/AVC
Duration : 2h 36mn
Bit rate : 13.0 Mbps
Width : 1 920 pixels
Height : 816 pixels
Display aspect ratio : 2.35:1
Frame rate mode : Constant
Frame rate : 23.976 fps
Color space : YUV
Chroma subsampling : 4:2:0
Bit depth : 8 bits
Scan type : Progressive
Bits/(Pixel*Frame) : 0.347
Stream size : 14.3 GiB (90%)
Title : Ali.(2001).BDRip.1080p.[denis100]
Writing library : x264 core 138 r2358 9e941d1
Encoding settings : cabac=1 / ref=5 / deblock=1:-3:-3 / analyse=0x3:0x113 / me=umh / subme=11 / psy=1 / psy_rd=1.00:0.10 / mixed_ref=1 / me_range=32 / chroma_me=1 / trellis=2 / 8x8dct=1 / cqm=0 / deadzone=21,11 / fast_pskip=0 / chroma_qp_offset=-3 / threads=6 / lookahead_threads=1 / sliced_threads=0 / nr=0 / decimate=1 / interlaced=0 / bluray_compat=0 / constrained_intra=0 / bframes=7 / b_pyramid=2 / b_adapt=2 / b_bias=0 / direct=3 / weightb=1 / open_gop=0 / weightp=2 / keyint=240 / keyint_min=23 / scenecut=40 / intra_refresh=0 / rc=crf / mbtree=0 / crf=18.0 / qcomp=0.60 / qpmin=0 / qpmax=69 / qpstep=4 / ip_ratio=1.40 / pb_ratio=1.30 / aq=1:0.90
Language : English
Default : Yes
Forced : No

Audio #1
ID : 2
Format : AC-3
Format/Info : Audio Coding 3
Mode extension : CM (complete main)
Format settings, Endianness : Big
Codec ID : A_AC3
Duration : 2h 36mn
Bit rate mode : Constant
Bit rate : 448 Kbps
Channel(s) : 6 channels
Channel positions : Front: L C R, Side: L R, LFE
Sampling rate : 48.0 KHz
Bit depth : 16 bits
Compression mode : Lossy
Stream size : 502 MiB (3%)
Title : Дублированный
Language : Russian
Default : Yes
Forced : No

Audio #2
ID : 3
Format : AC-3
Format/Info : Audio Coding 3
Mode extension : CM (complete main)
Format settings, Endianness : Big
Codec ID : A_AC3
Duration : 2h 36mn
Bit rate mode : Constant
Bit rate : 640 Kbps
Channel(s) : 6 channels
Channel positions : Front: L C R, Side: L R, LFE
Sampling rate : 48.0 KHz
Bit depth : 16 bits
Compression mode : Lossy
Stream size : 717 MiB (4%)
Title : English
Language : English
Default : No
Forced : No

Text
ID : 4
Format : UTF-8
Codec ID : S_TEXT/UTF8
Codec ID/Info : UTF-8 Plain Text
Title : Русские
Language : Russian
Default : No
Forced : No

Menu
00:00:00.000 : en:00:00:00.000
00:13:31.769 : en:00:13:31.769
00:26:25.041 : en:00:26:25.041
00:32:45.880 : en:00:32:45.880
00:37:20.863 : en:00:37:20.863
00:41:09.967 : en:00:41:09.967
00:51:43.391 : en:00:51:43.391
01:03:35.853 : en:01:03:35.853
01:11:27.324 : en:01:11:27.324
01:19:42.068 : en:01:19:42.068
01:23:59.534 : en:01:23:59.534
01:28:20.003 : en:01:28:20.003
01:34:53.938 : en:01:34:53.938
01:39:25.793 : en:01:39:25.793
01:41:24.787 : en:01:41:24.787
01:46:51.404 : en:01:46:51.404
01:55:34.344 : en:01:55:34.344
02:04:31.589 : en:02:04:31.589
02:15:47.681 : en:02:15:47.681
02:31:23.574 : en:02:31:23.574
x264 [info]: frame I:1397 Avg QP:16.13 size:139478
x264 [info]: frame P:54023 Avg QP:17.59 size: 95444
x264 [info]: frame B:169845 Avg QP:19.78 size: 60610

загрузка...
Правила, инструкции, FAQ!!!
Торрент  Добавлен [20 фев 2014, 22:22] Скачать торрент
Скачать торрент
[ Размер 79.33 КБ / Просмотров 8 ]

Статус  
 
Размер  15.76 ГБ
Приватный: Нет (DHT включён)
.torrent скачан  10
Как залить торрент? | Как скачать Torrent? | Как смотреть и слушать онлайн?  


     Отправить личное сообщение
   
Страница 1 из 1
Показать сообщения за:  Поле сортировки  
Начать новую тему Ответить на тему

   Похожие торренты   Автор   Ответы   Просмотры   Последнее сообщение 
В этой теме нет новых непрочитанных сообщений. Скачать торрент Проверен Видок / Vidocq (2001) BDRip 1080p

в форуме 720p | 1080p, Размер: 5.77 ГБ, Здоровье: 100%

Anonymous

0
23|5

65
115

15 ноя 2014, 01:27

Anonymous Перейти к последнему сообщению

В этой теме нет новых непрочитанных сообщений. Скачать торрент Проверен Любовь зла / Shallow Hal (2001) BDRip 1080p

в форуме 720p | 1080p, Размер: 7.74 ГБ, Здоровье: 65%

Гость

0
21|32

28
20

14 окт 2016, 20:10

Гость Перейти к последнему сообщению

В этой теме нет новых непрочитанных сообщений. Скачать торрент Проверен Энигма / Enigma (2001) BDRip 1080p | D, P

в форуме 720p | 1080p, Размер: 10.75 ГБ, Здоровье: 100%

Гость

0
102|28

201
107

29 июл 2015, 23:25

Гость Перейти к последнему сообщению

В этой теме нет новых непрочитанных сообщений. Скачать торрент Проверен И пришёл паук / Along Came A Spider (2001) BDRip 1080p

в форуме 720p | 1080p, Размер: 8.31 ГБ, Здоровье: 100%

Anonymous

0
6|1

19
74

19 июл 2014, 22:59

Anonymous Перейти к последнему сообщению

В этой теме нет новых непрочитанных сообщений. Скачать торрент Проверен Аттила-завоеватель / Attila (2001) BDRip 1080p

в форуме 720p | 1080p, Размер: 13.2 ГБ, Здоровье: 100%

Anonymous

0
33|16

49
271

16 авг 2014, 21:22

Anonymous Перейти к последнему сообщению



Сейчас этот форум просматривают: нет зарегистрированных пользователей и гости: 1


Вы не можете начинать темы
Вы не можете отвечать на сообщения
Вы не можете редактировать свои сообщения
Вы не можете удалять свои сообщения
Вы не можете добавлять вложения

Перейти:  

!ВНИМАНИЕ!
 Ресурс не предоставляет электронные версии произведений, а занимается лишь коллекционированием и каталогизацией ссылок, присылаемых и публикуемых на форуме нашими читателями. Если вы являетесь правообладателем какого-либо представленного материала и не желаете чтобы ссылка на него находилась в нашем каталоге, свяжитесь с нами и мы незамедлительно удалим её. Файлы для обмена на трекере предоставлены пользователями сайта, и администрация не несёт ответственности за их содержание. Просьба не заливать файлы, защищенные авторскими правами, а также файлы нелегального содержания!