На всех торрентах на трекере установлена скидка на скачивание в размере 100 процентов(а).
 Возможность скачивания торрента НЕ зависит от ограничений при низком ратио, низком аплоаде, требуемом ратио или требуемом аплоаде.


Начать новую тему Ответить на тему
Статистика раздачи
Размер: 1.76 ГБ | Добавлен: 20 фев 2014, 18:02 | Скачали: 1
Сидеров: 0  [0 байт/сек]    Личеров: 0  [0 байт/сек]
Пред. тема | След. тема 

Автор
Сообщение

СообщениеДобавлено: 20 фев 2014, 18:02 

О фильме:Пока город существует в своем привычном ночном ритме, молодая девушка кончает жизнь самоубийством, спрыгнув с высоты прямо на мостовую. А ранее престарелая дама нанимает ее в богатый дом, где они вместе будут прислуживать семье, состоящей из мужа, беременной двойней жены и развитого не по годам ребенка. Поначалу все идет замечательно, новая работница вписывается в семью без малейших проблем, пока пристальный интерес к ней не начинает испытывать хозяин дома.


Название: Служанка
Оригинальное название: Hanyo / The Housemaid
Год выхода: 2010
Жанр: Триллер, драма
Режиссер: Лим Сан Су

В ролях: Чон До Ён, Чжон Чжэ Ли, Юн Ё Чжон, Со У, Чи-юнг Парк, Ан Со Хен, Чжон-мин Хванг, Мун Со Ри, Джин-а Ким, Чхэ Тай-бэк





Страна: Корея Южная
Студия: CJ Venture Investment, Hanwha Entertainment Fund No. 1, Michigan Venture Capital
Продолжительность: 01:47:31
Перевод: Профессиональный многоголосый


Кодек: MPEG-4 AVC
Качество: BDRip-AVC
Видео: 1450 Кбит/с, 1024x436, 23.976 кадр/с
Звук:
Аудио #1: Русский (AC3, 6 ch, 448 Кбит/с) / Профессиональный многоголосый
Аудио #7: Корейский (AC3, 6 ch, 448 Кбит/с)
Субтитры: Русские

Семпл

Общее
Уникальный идентификатор : 251464001895595310300282636637765687456 (0xBD2E3482A75A3DBCB5202EA09478D8A0)
Полное имя : D:Мои РипыSluzhanka.2010.x264.BDRip.AVC.MediaClub.mkv
Формат : Matroska
Версия формата : Version 4 / Version 2
Размер файла : 1,76 Гбайт
Продолжительность : 1 ч. 47 м.
Общий поток : 2348 Кбит/сек
Название фильма : = MediaClub = rip by krakatuq
Дата кодирования : UTC 2014-02-20 11:00:36
Программа кодирования : mkvmerge v6.6.0 ('The Edge Of The In Between') built on Dec 1 2013 17:55:00
Библиотека кодирования : libebml v1.3.0 + libmatroska v1.4.1

Видео
Идентификатор : 1
Формат : AVC
Формат/Информация : Advanced Video Codec
Профиль формата : High@L4.1
Параметр CABAC формата : Да
Параметр ReFrames формата : 9 кадров
Идентификатор кодека : V_MPEG4/ISO/AVC
Продолжительность : 1 ч. 47 м.
Битрейт : 1450 Кбит/сек
Ширина : 1024 пикселя
Высота : 436 пикселей
Соотношение сторон : 2,35:1
Режим частоты кадров : Постоянный
Частота кадров : 23,976 кадра/сек
Цветовое пространство : YUV
Субдискретизация насыщенности : 4:2:0
Битовая глубина : 8 бит
Тип развёртки : Прогрессивная
Бит/(Пиксели*Кадры) : 0.135
Размер потока : 1,06 Гбайт (60%)
Заголовок : Sluzhanka.2010.x264.BDRip.AVC.MediaClub
Библиотека кодирования : x264 core 130 r2273 b3065e6
Настройки программы : cabac=1 / ref=9 / deblock=1:-2:-2 / analyse=0x3:0x133 / me=umh / subme=11 / psy=1 / psy_rd=1.00:0.10 / mixed_ref=1 / me_range=32 / chroma_me=1 / trellis=2 / 8x8dct=1 / cqm=0 / deadzone=21,11 / fast_pskip=0 / chroma_qp_offset=-3 / threads=3 / lookahead_threads=1 / sliced_threads=0 / nr=0 / decimate=0 / interlaced=0 / bluray_compat=0 / constrained_intra=0 / bframes=8 / b_pyramid=2 / b_adapt=2 / b_bias=0 / direct=3 / weightb=1 / open_gop=0 / weightp=2 / keyint=240 / keyint_min=23 / scenecut=40 / intra_refresh=0 / rc=2pass / mbtree=0 / bitrate=1450 / ratetol=1.0 / qcomp=0.60 / qpmin=0 / qpmax=69 / qpstep=4 / cplxblur=20.0 / qblur=0.5 / ip_ratio=1.40 / pb_ratio=1.30 / aq=1:1.00
Язык : English
Default : Да
Forced : Нет

Аудио #1
Идентификатор : 2
Формат : AC-3
Формат/Информация : Audio Coding 3
Расширение режима : CM (complete main)
Параметр Endianness формата : Big
Идентификатор кодека : A_AC3
Продолжительность : 1 ч. 47 м.
Вид битрейта : Постоянный
Битрейт : 448 Кбит/сек
Каналы : 6 каналов
Расположение каналов : Front: L C R, Side: L R, LFE
Частота : 48,0 КГц
Битовая глубина : 16 бит
Метод сжатия : С потерями
Размер потока : 345 Мбайт (19%)
Заголовок : TRACK_01_MVO_RUS
Язык : Russian
Default : Да
Forced : Да

Аудио #2
Идентификатор : 3
Формат : AC-3
Формат/Информация : Audio Coding 3
Расширение режима : CM (complete main)
Параметр Endianness формата : Big
Идентификатор кодека : A_AC3
Продолжительность : 1 ч. 47 м.
Вид битрейта : Постоянный
Битрейт : 448 Кбит/сек
Каналы : 6 каналов
Расположение каналов : Front: L C R, Side: L R, LFE
Частота : 48,0 КГц
Битовая глубина : 16 бит
Метод сжатия : С потерями
Размер потока : 345 Мбайт (19%)
Заголовок : TRACK_02_ORIGINAL_KOR
Язык : Korean
Default : Нет
Forced : Нет

Текст
Идентификатор : 4
Формат : UTF-8
Идентификатор кодека : S_TEXT/UTF8
Идентификатор кодека/Информация : UTF-8 Plain Text
Заголовок : Text_01_SUB_RUS
Язык : Russian
Default : Нет
Forced : Нет

Меню
00:00:00.000 : en:00:00:00.000
00:00:10.427 : en:00:00:10.427
00:10:52.443 : en:00:10:52.443
00:20:06.622 : en:00:20:06.622
00:30:48.638 : en:00:30:48.638
00:39:23.944 : en:00:39:23.944
00:48:18.562 : en:00:48:18.562
00:57:52.594 : en:00:57:52.594
01:07:12.319 : en:01:07:12.319
01:16:36.550 : en:01:16:36.550
01:24:28.563 : en:01:24:28.563
01:33:13.546 : en:01:33:13.546
01:43:19.318 : en:01:43:19.318

x264 [info]: frame I:951   Avg QP:14.95  size: 65772
x264 [info]: frame P:33576 Avg QP:18.30  size: 18114
x264 [info]: frame B:120139 Avg QP:20.48  size:  4149

• Сохранены оригинальные чаптеры как на Blu-ray.

• За помощь в подготовке релиза спасибо Константину - Painter и Виталию - neni

• За постер спасибо Инне - cookies от Media-Art-Club


Релиз от:
Автор рипа:
загрузка...
Правила, инструкции, FAQ!!!
Торрент  Добавлен [20 фев 2014, 18:02] Скачать торрент
Скачать торрент
[ Размер 18.19 КБ / Просмотров 4 ]

Статус  
 
Размер  1.76 ГБ
Приватный: Нет (DHT включён)
.torrent скачан  1
Как залить торрент? | Как скачать Torrent? | Как смотреть и слушать онлайн?  


     Отправить личное сообщение
   
Страница 1 из 1
Показать сообщения за:  Поле сортировки  
Начать новую тему Ответить на тему

   Похожие торренты   Автор   Ответы   Просмотры   Последнее сообщение 
В этой теме нет новых непрочитанных сообщений. Скачать торрент Проверен Марина Серова | Служанка закона (2015) [FB2]

в форуме Детективы и Боевики, Размер: 1006.1 КБ, Здоровье: 100%

Anonymous

0
12|1

32
4

21 ноя 2015, 23:38

Anonymous Перейти к последнему сообщению

В этой теме нет новых непрочитанных сообщений. Скачать торрент Служанка трёх господ (Мария Халпахчи) [2008, Украина, лирическая комедия, SATRip] Original (rus)

в форуме Комедии, Размер: 1.43 ГБ, Здоровье: 100%

Anonymous

0
9|2

77
0

14 фев 2014, 07:47

Anonymous Перейти к последнему сообщению

В этой теме нет новых непрочитанных сообщений. Скачать торрент Проверен ТЕРРА-Детектив - Стееман С., Коатмёр Ж., Кассак Ф. - Приговорённый умирает в пять. Я убил призрака. Болтливая служанка [1997, PDF/DjVu/FB2, RUS]

в форуме Детективы и Боевики, Размер: 30.05 МБ, Здоровье: 100%

Anonymous

0
3|1

1
0

08 сен 2016, 21:57

Anonymous Перейти к последнему сообщению

В этой теме нет новых непрочитанных сообщений. Скачать торрент Проверен Космическая одиссея 2010 / 2010: The Year We Make Contact (1984) BDRip от HQCLUB

в форуме Фантастика, Фэнтези, Размер: 2.18 ГБ, Здоровье: 100%

Гость

0
12|6

57
215

07 дек 2014, 17:47

Гость Перейти к последнему сообщению

В этой теме нет новых непрочитанных сообщений. Скачать торрент Проверен Girls Dead Monster - starring LiSA TOUR 2010 Final -Keep The Angel Beats!- [2010, JRock, BDRip]

в форуме Концерты (HD-Video), Размер: 5.47 ГБ, Здоровье: 0%

Anonymous

0
0|0

1
0

23 окт 2016, 12:09

Anonymous Перейти к последнему сообщению



Сейчас этот форум просматривают: нет зарегистрированных пользователей и гости: 3


Вы не можете начинать темы
Вы не можете отвечать на сообщения
Вы не можете редактировать свои сообщения
Вы не можете удалять свои сообщения
Вы не можете добавлять вложения

Перейти:  

!ВНИМАНИЕ!
 Ресурс не предоставляет электронные версии произведений, а занимается лишь коллекционированием и каталогизацией ссылок, присылаемых и публикуемых на форуме нашими читателями. Если вы являетесь правообладателем какого-либо представленного материала и не желаете чтобы ссылка на него находилась в нашем каталоге, свяжитесь с нами и мы незамедлительно удалим её. Файлы для обмена на трекере предоставлены пользователями сайта, и администрация не несёт ответственности за их содержание. Просьба не заливать файлы, защищенные авторскими правами, а также файлы нелегального содержания!