На всех торрентах на трекере установлена скидка на скачивание в размере 100 процентов(а).
 Возможность скачивания торрента НЕ зависит от ограничений при низком ратио, низком аплоаде, требуемом ратио или требуемом аплоаде.


Начать новую тему Ответить на тему
Статистика раздачи
Размер: 2.92 ГБ | Добавлен: 19 фев 2014, 11:41 | Скачали: 0
Сидеров: 0  [0 байт/сек]    Личеров: 0  [0 байт/сек]
Пред. тема | След. тема 

Автор
Сообщение

СообщениеДобавлено: 19 фев 2014, 11:41 

Немыслимое / Unthinkable Extended Cut
«На войне без правил законов нет.»
Страна: США
Жанр: триллер, драма
Год выпуска: 2010
Продолжительность: 01:37:07
Перевод: Профессиональный (многоголосый закадровый) R5 + Авторский (одноголосый закадровый) Ю.Сербин + Оригинал
Cубтитры: Russian (Гоблин), Russian (Voronine), Ukrainian, English, English (SDH)
Режиссер: Грегор Джордан / Gregor Jordan
В ролях: Сэмюэл Л. Джексон, Кэрри-Энн Мосс, Майкл Шин, Стивен Рут, Лора Койович, Мартин Донован, Джил Беллоуз, Винсент Лареска, Брэндон Рут, Джошуа Харто
Описание: Что будет, если военнослужащий американской армии примет ислам и заложит три ядерных заряда в крупнейших городах Америки? Как заставить его выдать места закладки до подрыва? Что делать, если террорист готов ко всему, что с ним могут сделать по закону?





Качество видео: BDRip-AVC | исх. Unthinkable.2010.BDRemux | => Скачать Сэмпл
Формат видео: MKV

Видео: 1 152x624 (16:9), 23.976 fps, AVC ~3 143 kbps avg, 0.182 bit/pixel
Аудио: 48.0 KHz, AC3, 6 ch, 384 kbps | Russian (MVO)
Аудио: 48.0 KHz, AC3, 6 ch, 384 kbps | Russian (AVO) Ю.Сербин
Аудио: 48.0 KHz, AC3, 6 ch, 384 kbps | English

MediaInfo | x264
x264
x264 [info]: frame I:1167 Avg QP:19.83 size: 73840
x264 [info]: frame P:26666 Avg QP:20.42 size: 27090
x264 [info]: frame B:111895 Avg QP:21.73 size: 13229
x264 [info]: consecutive B-frames: 1.5% 1.4% 4.5% 15.6% 15.5% 38.1% 9.3% 6.4% 3.4% 1.5% 1.0% 1.1% 0.7%
x264 [info]: mb I I16..4: 11.8% 74.9% 13.3%
x264 [info]: mb P I16..4: 1.0% 9.6% 0.7% P16..4: 39.8% 17.0% 15.1% 0.5% 0.1% skip:16.1%
x264 [info]: mb B I16..4: 0.0% 1.0% 0.0% B16..8: 43.1% 9.9% 3.6% direct: 4.8% skip:37.5% L0:45.2% L1:48.4% BI: 6.4%
x264 [info]: 8x8 transform intra:84.5% inter:61.3%
x264 [info]: direct mvs spatial:95.9% temporal:4.1%
x264 [info]: coded y,uvDC,uvAC intra: 88.3% 66.9% 40.8% inter: 24.3% 11.0% 0.5%
x264 [info]: i16 v,h,dc,p: 36% 21% 11% 33%
x264 [info]: i8 v,h,dc,ddl,ddr,vr,hd,vl,hu: 7% 7% 12% 11% 14% 13% 13% 11% 12%
x264 [info]: i4 v,h,dc,ddl,ddr,vr,hd,vl,hu: 9% 7% 3% 11% 16% 15% 14% 12% 13%
x264 [info]: i8c dc,h,v,p: 45% 27% 18% 10%
x264 [info]: Weighted P-Frames: Y:2.8% UV:0.4%
x264 [info]: ref P L0: 42.7% 10.4% 18.8% 6.4% 5.5% 3.8% 3.5% 1.7% 1.6% 1.3% 1.2% 1.0% 1.0% 0.9% 0.2% 0.1%
x264 [info]: ref B L0: 65.0% 13.4% 7.1% 3.7% 2.7% 2.3% 1.8% 1.1% 0.9% 0.8% 0.7% 0.4% 0.1%
x264 [info]: ref B L1: 90.1% 9.9%
x264 [info]: kb/s:3141.90
General
Unique ID : 189241845453465802100129882728808102503 (0x8E5EA758296F3CCB9ACCCC8F6660BA67)
Complete name : D:\Фильмы\Рипы\Unthinkable.BDRip-AVC.by Matroska.mkv
Format : Matroska
Format version : Version 2
File size : 2.92 GiB
Duration : 1h 37mn
Overall bit rate : 4 297 Kbps
Movie name : Немыслимое
Encoded date : UTC 2012-05-15 13:06:46
Writing application : mkvmerge v5.2.0 ('I can't explain') built on Dec 18 2011 18:12:03
Writing library : libebml v1.2.3 + libmatroska v1.3.0

Video
ID : 1
Format : AVC
Format/Info : Advanced Video Codec
Format profile : High@L4.1
Format settings, CABAC : Yes
Format settings, ReFrames : 14 frames
Codec ID : V_MPEG4/ISO/AVC
Duration : 1h 37mn
Bit rate : 3 143 Kbps
Width : 1 152 pixels
Height : 624 pixels
Display aspect ratio : 16:9
Frame rate : 23.976 fps
Color space : YUV
Chroma subsampling : 4:2:0
Bit depth : 8 bits
Scan type : Progressive
Bits/(Pixel*Frame) : 0.182
Stream size : 2.08 GiB (71%)
Writing library : x264 core 119 r2106 07efeb4
Encoding settings : cabac=1 / ref=14 / deblock=1:-3:-2 / analyse=0x3:0x133 / me=umh / subme=10 / psy=1 / psy_rd=1.00:0.05 / mixed_ref=1 / me_range=32 / chroma_me=1 / trellis=2 / 8x8dct=1 / cqm=0 / deadzone=21,11 / fast_pskip=0 / chroma_qp_offset=-6 / threads=6 / sliced_threads=0 / nr=0 / decimate=1 / interlaced=0 / bluray_compat=0 / constrained_intra=0 / bframes=12 / b_pyramid=2 / b_adapt=2 / b_bias=0 / direct=3 / weightb=1 / open_gop=0 / weightp=2 / keyint=240 / keyint_min=24 / scenecut=40 / intra_refresh=0 / rc_lookahead=60 / rc=2pass / mbtree=0 / bitrate=3143 / ratetol=1.0 / qcomp=0.65 / qpmin=0 / qpmax=69 / qpstep=4 / cplxblur=20.0 / qblur=0.5 / vbv_maxrate=50000 / vbv_bufsize=62500 / nal_hrd=none / ip_ratio=1.40 / pb_ratio=1.30 / aq=2:1.00 / zones=129760,139727,q=35
Default : Yes
Forced : No
Matrix coefficients : BT.709-5, BT.1361, IEC 61966-2-4 709, SMPTE RP177

Audio #1
ID : 2
Format : AC-3
Format/Info : Audio Coding 3
Mode extension : CM (complete main)
Codec ID : A_AC3
Duration : 1h 37mn
Bit rate mode : Constant
Bit rate : 384 Kbps
Channel(s) : 6 channels
Channel positions : Front: L C R, Side: L R, LFE
Sampling rate : 48.0 KHz
Bit depth : 16 bits
Compression mode : Lossy
Stream size : 267 MiB (9%)
Default : Yes
Forced : No

Audio #2
ID : 3
Format : AC-3
Format/Info : Audio Coding 3
Mode extension : CM (complete main)
Codec ID : A_AC3
Duration : 1h 37mn
Bit rate mode : Constant
Bit rate : 384 Kbps
Channel(s) : 6 channels
Channel positions : Front: L C R, Side: L R, LFE
Sampling rate : 48.0 KHz
Bit depth : 16 bits
Compression mode : Lossy
Stream size : 267 MiB (9%)
Default : No
Forced : No

Audio #3
ID : 4
Format : AC-3
Format/Info : Audio Coding 3
Mode extension : CM (complete main)
Codec ID : A_AC3
Duration : 1h 37mn
Bit rate mode : Constant
Bit rate : 384 Kbps
Channel(s) : 6 channels
Channel positions : Front: L C R, Side: L R, LFE
Sampling rate : 48.0 KHz
Bit depth : 16 bits
Compression mode : Lossy
Stream size : 267 MiB (9%)
Default : No
Forced : No

Text #1
ID : 5
Format : UTF-8
Codec ID : S_TEXT/UTF8
Codec ID/Info : UTF-8 Plain Text
Title : Гоблин
Language : Russian
Default : No
Forced : No

Text #2
ID : 6
Format : UTF-8
Codec ID : S_TEXT/UTF8
Codec ID/Info : UTF-8 Plain Text
Title : Voronine
Language : Russian
Default : No
Forced : No

Text #3
ID : 7
Format : UTF-8
Codec ID : S_TEXT/UTF8
Codec ID/Info : UTF-8 Plain Text
Language : Ukrainian
Default : No
Forced : No

Text #4
ID : 8
Format : UTF-8
Codec ID : S_TEXT/UTF8
Codec ID/Info : UTF-8 Plain Text
Language : English
Default : No
Forced : No

Text #5
ID : 9
Format : UTF-8
Codec ID : S_TEXT/UTF8
Codec ID/Info : UTF-8 Plain Text
Title : SDH
Language : English
Default : No
Forced : No

Menu
00:00:00.000 : en:Chapter 01
00:04:30.896 : en:Chapter 02
00:10:19.494 : en:Chapter 03
00:15:23.131 : en:Chapter 04
00:19:52.983 : en:Chapter 05
00:25:29.486 : en:Chapter 06
00:29:13.335 : en:Chapter 07
00:35:22.120 : en:Chapter 08
00:40:32.639 : en:Chapter 09
00:47:36.562 : en:Chapter 10
00:53:36.797 : en:Chapter 11
00:58:34.177 : en:Chapter 12
01:04:05.675 : en:Chapter 13
01:08:56.007 : en:Chapter 14
01:15:51.589 : en:Chapter 15
01:22:00.374 : en:Chapter 16
Скриншоты
загрузка...
Правила, инструкции, FAQ!!!
Торрент  Добавлен [19 фев 2014, 11:41] Скачать торрент
Скачать торрент
[ Размер 15.18 КБ / Просмотров 11 ]

Статус  
 
Размер  2.92 ГБ
Приватный: Нет (DHT включён)
.torrent скачан  0
Как залить торрент? | Как скачать Torrent? | Как смотреть и слушать онлайн?  


     Отправить личное сообщение
   
Страница 1 из 1
Показать сообщения за:  Поле сортировки  
Начать новую тему Ответить на тему

   Похожие торренты   Автор   Ответы   Просмотры   Последнее сообщение 
В этой теме нет новых непрочитанных сообщений. Скачать торрент Ундина / Ondine (Нил Джордан / Neil Jordan) [2009, фэнтези, драма, BDRip] Лицензия

в форуме Фантастика, Фэнтези, Размер: 1.41 ГБ, Здоровье: 100%

Anonymous

0
14|4

46
1

19 фев 2014, 11:41

Anonymous Перейти к последнему сообщению

В этой теме нет новых непрочитанных сообщений. Скачать торрент Трещины / Cracks (Джордан Скотт / Jordan Scott) [2009 г., Драма, DVDRip]

в форуме Драмы, Мелодрамы, Размер: 703.39 МБ, Здоровье: 100%

Anonymous

0
18|6

21
0

15 апр 2014, 08:18

Anonymous Перейти к последнему сообщению

В этой теме нет новых непрочитанных сообщений. Скачать торрент Проверен Manfred Gregor/Манфред Грегор - Die Brucke/Мост [1958, DjVu, RUS]

в форуме Зарубежная литература (XX и XXI век), Размер: 2.57 МБ, Здоровье: 0%

Anonymous

0
0|0

3
0

08 сен 2016, 19:04

Anonymous Перейти к последнему сообщению

В этой теме нет новых непрочитанных сообщений. Скачать торрент Проверен [iPad] Код Да Винчи / The Da Vinci Code (Рон Ховард/ Ron Howard) [2006, США, Триллер, драма, детектив, BDRip, 576p] [Extended Cut] Dub + Original + sub (rus, eng)

в форуме Фильмы для iPod, iPhone, iPad, Размер: 3.01 ГБ, Здоровье: 100%

Anonymous

0
23|7

49
1

11 май 2015, 01:39

Anonymous Перейти к последнему сообщению

В этой теме нет новых непрочитанных сообщений. Скачать торрент Проверен Nicole Jordan/Николь Джордан - собрание произведений (20 книг) [1992-2009, FB2, RUS]

в форуме Женский роман, Размер: 12.83 МБ, Здоровье: 0%

Anonymous

0
0|0

2
0

28 авг 2016, 20:35

Anonymous Перейти к последнему сообщению



Сейчас этот форум просматривают: нет зарегистрированных пользователей и гости: 1


Вы не можете начинать темы
Вы не можете отвечать на сообщения
Вы не можете редактировать свои сообщения
Вы не можете удалять свои сообщения
Вы не можете добавлять вложения

Перейти:  

!ВНИМАНИЕ!
 Ресурс не предоставляет электронные версии произведений, а занимается лишь коллекционированием и каталогизацией ссылок, присылаемых и публикуемых на форуме нашими читателями. Если вы являетесь правообладателем какого-либо представленного материала и не желаете чтобы ссылка на него находилась в нашем каталоге, свяжитесь с нами и мы незамедлительно удалим её. Файлы для обмена на трекере предоставлены пользователями сайта, и администрация не несёт ответственности за их содержание. Просьба не заливать файлы, защищенные авторскими правами, а также файлы нелегального содержания!