На всех торрентах на трекере установлена скидка на скачивание в размере 100 процентов(а).
 Возможность скачивания торрента НЕ зависит от ограничений при низком ратио, низком аплоаде, требуемом ратио или требуемом аплоаде.


Начать новую тему Ответить на тему
Статистика раздачи
Размер: 1.73 ГБ | Добавлен: 19 фев 2014, 09:53 | Скачали: 0
Сидеров: 0  [0 байт/сек]    Личеров: 0  [0 байт/сек]
Пред. тема | След. тема 

Автор
Сообщение

СообщениеДобавлено: 19 фев 2014, 09:53 


Идиократия
Idiocracy

«The Future Is A No Brainer»

Год выпуска: 2006
Страна: США
Жанр: фантастика, комедия, приключения
Продолжительность: 01:20:42
Перевод: Профессиональный (многоголосый закадровый)
Субтитры: есть
Режиссер:
Майк Джадж / Mike Judge
Сценарий: Майк Джадж / Mike Judge, Итан Коэн / Etan Cohen

В ролях: Люк Уилсон (Joe Bauers), Майя Рудольф (Rita), Дэкс Шепард (Frito), Терри Крюс (President Camacho), Энтони Кампос (Secretary of Defense), Дэвид Херман (Secretary of State), Сонни Кастилло (Prosecutor), Кевин МакЭфи (Bailiff), Роберт Мусгрейв (Sgt. Keller), Майкл МакКафферти (Officer Collins), Кристофер Райан (Hospital Technician), Джастин Лонг (Doctor)
Описание:
В результате вырождения интеллектуалов, неконтролируемого размножения людей с, мягко говоря, средними умственными возможностями, неправильной направленности научных исследований и деградации моральных ценностей человечество тотально отупело к 26 веку. Но благодаря проводимому в наше время эксперименту по заморозке людей в будущем оказываются военный и проститутка. Герои, казалось бы, не должны отличаться высоким уровнем интеллекта, да, так и есть, но по меркам 26-го века они самые умные люди на планете. Теперь они должны спасти человечество от полного вымирания. Они единственная и последняя надежда гибнущей цивилизации людей!


Качество: HDTVRip-AVC
Формат: mkv
Видеокодек: x264
Аудиокодек: AC3
Видео: x264, 960x512, 2248 Кбит/сек, 25 кадр/сек, 0.183 Бит/(Пик*Кадры)
Аудио#1: AC3, 48 КГц, 6 каналов, 384 Кбит/сек, 16 бит |Многоголосый закадровый|
Аудио#2: AC3, 48 КГц, 6 каналов, 384 Кбит/сек, 16 бит |Оригинал English|
Субтитры: русские, английские (.srt)
MI
Общее
Уникальный идентификатор : 233542086032836426449608847627333864904 (0xAFB291D65231862EAF0E5D1A46370DC8)
Полное имя : Idiocracy.2006.HDTVRip-AVC.x264.AC3.Rus.Eng.mkv
Формат : Matroska
Размер файла : 1,73 Гбайт
Продолжительность : 1 ч. 20 м.
Общий поток : 3077 Кбит/сек
Дата кодирования : UTC 2011-07-09 15:30:29
Программа кодирования : mkvmerge v3.4.0 ('Rapunzel') сборка от May 15 2010 09:38:20
Библиотека кодирования : libebml v0.8.0 + libmatroska v0.9.0

Видео
Идентификатор : 1
Формат : AVC
Формат/Информация : Advanced Video Codec
Профиль формата : High@L3.1
Параметр CABAC формата : Да
Параметр ReFrames формата : 9 кадров
Идентификатор кодека : V_MPEG4/ISO/AVC
Продолжительность : 1 ч. 20 м.
Битрейт : 2248 Кбит/сек
Ширина : 960 пикс.
Высота : 512 пикс.
Соотношение сторон : 1,875
Частота кадров : 25,000 кадр/сек
Цветовое пространство : YUV
Подвыборка цветности : 4:2:0
Битовая глубина : 8 бит
Тип развёртки : Прогрессивная
Бит/(Пиксели*Кадры) : 0.183
Размер потока : 1,27 Гбайт (73%)
Заголовок : Idiocracy by AnTo}{@ aka itsamna
Библиотека кодирования : x264 core 115 r1947 b5a8ad7
Настройки программы : cabac=1 / ref=9 / deblock=1:-1:-1 / analyse=0x3:0x133 / me=umh / subme=10 / psy=1 / psy_rd=1.00:0.25 / mixed_ref=1 / me_range=24 / chroma_me=1 / trellis=2 / 8x8dct=1 / cqm=0 / deadzone=21,11 / fast_pskip=0 / chroma_qp_offset=-4 / threads=3 / sliced_threads=0 / nr=0 / decimate=1 / interlaced=0 / bluray_compat=0 / constrained_intra=0 / bframes=7 / b_pyramid=2 / b_adapt=2 / b_bias=0 / direct=3 / weightb=1 / open_gop=0 / weightp=2 / keyint=250 / keyint_min=23 / scenecut=40 / intra_refresh=0 / rc_lookahead=40 / rc=crf / mbtree=1 / crf=18.0 / qcomp=0.70 / qpmin=10 / qpmax=69 / qpstep=4 / ip_ratio=1.40 / aq=1:0.70
Язык : English

Аудио #1
Идентификатор : 2
Формат : AC-3
Формат/Информация : Audio Coding 3
Расширение режима : CM (complete main)
Идентификатор кодека : A_AC3
Продолжительность : 1 ч. 20 м.
Вид битрейта : Постоянный
Битрейт : 384 Кбит/сек
Каналы : 6 каналов
Расположение каналов : Front: L C R, Side: L R, LFE
Частота : 48,0 КГц
Битовая глубина : 16 бит
Метод сжатия : С потерями
Размер потока : 222 Мбайт (12%)
Заголовок : MVO Russian
Язык : Russian

Аудио #2
Идентификатор : 3
Формат : AC-3
Формат/Информация : Audio Coding 3
Расширение режима : CM (complete main)
Идентификатор кодека : A_AC3
Продолжительность : 1 ч. 20 м.
Вид битрейта : Постоянный
Битрейт : 384 Кбит/сек
Каналы : 6 каналов
Расположение каналов : Front: L C R, Side: L R, LFE
Частота : 48,0 КГц
Битовая глубина : 16 бит
Метод сжатия : С потерями
Размер потока : 222 Мбайт (12%)
Заголовок : Original English
Язык : English

Текст #1
Идентификатор : 4
Формат : UTF-8
Идентификатор кодека : S_TEXT/UTF8
Идентификатор кодека/Информация : UTF-8 Plain Text
Заголовок : Russian seqw0
Язык : Russian

Текст #2
Идентификатор : 5
Формат : UTF-8
Идентификатор кодека : S_TEXT/UTF8
Идентификатор кодека/Информация : UTF-8 Plain Text
Заголовок : English
Язык : English
x264 log
Скриншоты
загрузка...
Правила, инструкции, FAQ!!!
Торрент  Добавлен [19 фев 2014, 09:53] Скачать торрент
Скачать торрент
[ Размер 17.86 КБ / Просмотров 6 ]

Статус  
 
Размер  1.73 ГБ
Приватный: Нет (DHT включён)
.torrent скачан  0
Как залить торрент? | Как скачать Torrent? | Как смотреть и слушать онлайн?  


     Отправить личное сообщение
   
Страница 1 из 1
Показать сообщения за:  Поле сортировки  
Начать новую тему Ответить на тему

   Похожие торренты   Автор   Ответы   Просмотры   Последнее сообщение 
В этой теме нет новых непрочитанных сообщений. Скачать торрент Идиократия / Idiocracy (Майк Джадж / Mike Judge) [2006 г., фантастика, комедия, приключения, HDTVRip]

в форуме Фантастика, Фэнтези, Размер: 1.72 ГБ, Здоровье: 100%

Anonymous

0
34|11

58
0

01 апр 2014, 09:34

Anonymous Перейти к последнему сообщению

В этой теме нет новых непрочитанных сообщений. Скачать торрент Проверен W.Q.Judge / У.К.Джадж - The Path / Путь [1886-1896, PDF, ENG]

в форуме Эзотерика, гадания, магия, фен-шуй, Размер: 89.73 МБ, Здоровье: 0%

Anonymous

0
0|0

1
0

28 авг 2016, 21:50

Anonymous Перейти к последнему сообщению

В этой теме нет новых непрочитанных сообщений. Скачать торрент Проверен Космическая Скратастрофа в 3Д / Cosmic Scrat-tastrophe 3D (Йони Бреннер, Майк Рейсс / Mike Thurmeier, Mike Reiss) [2015, мультфильм, короткометражка, фантастика, комедия, BDremux, 1080p] BD3D [Re-Encode - Left foreshortening first]

в форуме 3D Мультфильмы, Размер: 1.77 ГБ, Здоровье: 0%

Anonymous

0
0|0

9
0

07 сен 2016, 18:05

Anonymous Перейти к последнему сообщению

В этой теме нет новых непрочитанных сообщений. Скачать торрент Проверен [iPad] Я – начало / I Origins (Майк Кэхилл / Mike Cahill ) [2014, США, Фантастика, драма, WEB-DLRip, SD (576p)] MVO + Original + sub (rus, eng)

в форуме Фильмы для iPod, iPhone, iPad, Размер: 1.88 ГБ, Здоровье: 100%

Гость

0
56|19

39
0

12 май 2015, 00:07

Гость Перейти к последнему сообщению

В этой теме нет новых непрочитанных сообщений. Скачать торрент Засну, когда умру / I'll Sleep When I'm Dead (Майк Ходжис / Mike Hodges) [2003, триллер, драма, криминал, детектив, HDTVRip]

в форуме Триллеры, Размер: 745 МБ, Здоровье: ???%

Anonymous

0
0|1

34
0

28 апр 2014, 22:40

Anonymous Перейти к последнему сообщению



Сейчас этот форум просматривают: нет зарегистрированных пользователей и гости: 2


Вы не можете начинать темы
Вы не можете отвечать на сообщения
Вы не можете редактировать свои сообщения
Вы не можете удалять свои сообщения
Вы не можете добавлять вложения

Перейти:  

!ВНИМАНИЕ!
 Ресурс не предоставляет электронные версии произведений, а занимается лишь коллекционированием и каталогизацией ссылок, присылаемых и публикуемых на форуме нашими читателями. Если вы являетесь правообладателем какого-либо представленного материала и не желаете чтобы ссылка на него находилась в нашем каталоге, свяжитесь с нами и мы незамедлительно удалим её. Файлы для обмена на трекере предоставлены пользователями сайта, и администрация не несёт ответственности за их содержание. Просьба не заливать файлы, защищенные авторскими правами, а также файлы нелегального содержания!