На всех торрентах на трекере установлена скидка на скачивание в размере 100 процентов(а).
 Возможность скачивания торрента НЕ зависит от ограничений при низком ратио, низком аплоаде, требуемом ратио или требуемом аплоаде.


Начать новую тему Ответить на тему
Статистика раздачи
Размер: 2.17 ГБ | Добавлен: 19 фев 2014, 09:18 | Скачали: 0
Сидеров: 0  [0 байт/сек]    Личеров: 0  [0 байт/сек]
Пред. тема | След. тема 

Автор
Сообщение

СообщениеДобавлено: 19 фев 2014, 09:18 

Вкратце:
Некогда популярное телевизионное шоу «Магазин на диване» переживает трудные времена. Зрителям надоела скучная реклама, и рейтинг передачи неуклонно падает. Ее бессменный руководитель Рик Хэйман пытается спасти положение, но безуспешно. Вдобавок к его и без того многочисленным проблемам, у Рика появляется еще одна головная боль в лице нового знакомого по имени Джи.

Этот странный человек, облаченный в белые одежды, путешествует по стране и обращается к окружающим со своими забавными проповедями. У него есть несомненный дар убеждать людей, и Рик решает этим воспользоваться. Камера, мотор, Джи в прямом эфире, и... такой веселой рекламы зритель еще не видел!



Название: Святоша
Оригинальное название: Holy Man
Год выхода: 1998
Жанр: мелодрама, комедия
Режиссер: Стивен Херек


В ролях: Эдди Мёрфи, Джефф Голдблюм, Келли Престон, Роберт Лоджа, Джон Крайер, Эрик МакКормак, Сэм Китчин, Роберт Смолл, Марк Маколей, Мэри Стаут





Страна: США
Продолжительность: 01:53:43
Перевод: Проф. Многоголосый закадровый, Первый канал


Кодек: AVC
Качество: BDRip-AVC
Видео: 2544 kb/s, 1136x480, 23.976 fps
Звук: 48 kHz, AC3, 2/0 (L,R) ch, ~192 kbps

General
Unique ID : 206462659343196211183042154789556892012 (0x9B53430580401FDBBEF00C8ACB7AB16C)
Complete name : D:КИНОSvjatosha.(1998).BDRip-AVC.[-=DoMiNo=-].mkv
Format : Matroska
Format version : Version 2
File size : 2.17 GiB
Duration : 1h 53mn
Overall bit rate : 2 738 Kbps
Encoded date : UTC 2014-02-15 22:58:27
Writing application : mkvmerge v5.8.0 ('No Sleep / Pillow') built on Sep 2 2012 15:37:04
Writing library : libebml v1.2.3 + libmatroska v1.3.0

Video
ID : 1
Format : AVC
Format/Info : Advanced Video Codec
Format profile : High@L4.1
Format settings, CABAC : Yes
Format settings, ReFrames : 4 frames
Codec ID : V_MPEG4/ISO/AVC
Duration : 1h 53mn
Bit rate : 2 544 Kbps
Width : 1 136 pixels
Height : 480 pixels
Display aspect ratio : 2.35:1
Frame rate mode : Constant
Frame rate : 23.976 fps
Color space : YUV
Chroma subsampling : 4:2:0
Bit depth : 8 bits
Scan type : Progressive
Bits/(Pixel*Frame) : 0.195
Stream size : 1.98 GiB (91%)
Writing library : x264 core 125 r2208 d9d2288
Encoding settings : cabac=1 / ref=3 / deblock=1:-1:-1 / analyse=0x3:0x113 / me=umh / subme=11 / psy=1 / psy_rd=1.00:0.15 / mixed_ref=1 / me_range=24 / chroma_me=1 / trellis=2 / 8x8dct=1 / cqm=0 / deadzone=21,11 / fast_pskip=0 / chroma_qp_offset=-6 / threads=6 / lookahead_threads=6 / sliced_threads=0 / slices=4 / nr=0 / decimate=1 / interlaced=0 / bluray_compat=0 / constrained_intra=0 / bframes=3 / b_pyramid=2 / b_adapt=2 / b_bias=0 / direct=3 / weightb=1 / open_gop=1 / weightp=2 / keyint=240 / keyint_min=23 / scenecut=40 / intra_refresh=0 / rc_lookahead=60 / rc=2pass / mbtree=1 / bitrate=2544 / ratetol=1.0 / qcomp=0.60 / qpmin=0 / qpmax=69 / qpstep=4 / cplxblur=20.0 / qblur=0.5 / vbv_maxrate=17500 / vbv_bufsize=14000 / nal_hrd=none / ip_ratio=1.40 / aq=1:1.00
Default : Yes
Forced : No
Color primaries : Generic film

Audio
ID : 2
Format : AC-3
Format/Info : Audio Coding 3
Mode extension : CM (complete main)
Format settings, Endianness : Big
Codec ID : A_AC3
Duration : 1h 53mn
Bit rate mode : Constant
Bit rate : 192 Kbps
Channel(s) : 2 channels
Channel positions : Front: L R
Sampling rate : 48.0 KHz
Bit depth : 16 bits
Compression mode : Lossy
Stream size : 156 MiB (7%)
Default : Yes
Forced : No
загрузка...
Правила, инструкции, FAQ!!!
Торрент  Добавлен [19 фев 2014, 09:18] Скачать торрент
Скачать торрент
[ Размер 11.49 КБ / Просмотров 9 ]

Статус  
 
Размер  2.17 ГБ
Приватный: Нет (DHT включён)
.torrent скачан  0
Как залить торрент? | Как скачать Torrent? | Как смотреть и слушать онлайн?  


     Отправить личное сообщение
   
Страница 1 из 1
Показать сообщения за:  Поле сортировки  
Начать новую тему Ответить на тему

   Похожие торренты   Автор   Ответы   Просмотры   Последнее сообщение 
В этой теме нет новых непрочитанных сообщений. Скачать торрент Святоша / Holy Man (1998) BDRip

в форуме Драмы, Мелодрамы, Размер: 2.19 ГБ, Здоровье: 0%

Anonymous

0
0|0

70
0

19 фев 2014, 09:21

Anonymous Перейти к последнему сообщению

В этой теме нет новых непрочитанных сообщений. Скачать торрент Проверен (Heavy Metal) [CD] Holy Mother - Toxic Rain - 1998, FLAC (image+.cue), lossless

в форуме Heavy, Power, Progressive (Metal), Размер: 317.44 МБ, Здоровье: 0%

Anonymous

0
0|0

0
0

11 окт 2016, 00:32

Anonymous Перейти к последнему сообщению

В этой теме нет новых непрочитанных сообщений. Скачать торрент Проверен (Pshychedelic, Folk, Progressive) Holy River Family Band - Welcome to Riverhouse (2CD) - 1998, FLAC (tracks+.cue), lossless

в форуме Progressive & Art-Rock, Размер: 741.45 МБ, Здоровье: 100%

Anonymous

0
1|0

6
1

29 авг 2016, 22:42

Anonymous Перейти к последнему сообщению

В этой теме нет новых непрочитанных сообщений. Скачать торрент Проверен (Heavy/Power/Traditional Metal) Holy Mother - Toxic Rain - 1998 (2002) (13 Tracks) (Russia), APE (image+.cue), lossless

в форуме Heavy, Power, Progressive (Metal), Размер: 294.45 МБ, Здоровье: 0%

Anonymous

0
0|0

4
0

10 окт 2016, 23:48

Anonymous Перейти к последнему сообщению

В этой теме нет новых непрочитанных сообщений. Скачать торрент Dio - Holy Diver Live [2006, Heavy Metal, BDRip, 720p]

в форуме Концерты (HD-Video), Размер: 6.56 ГБ, Здоровье: 100%

Anonymous

0
9|3

76
1

18 янв 2014, 18:20

Anonymous Перейти к последнему сообщению



Сейчас этот форум просматривают: нет зарегистрированных пользователей и гости: 1


Вы не можете начинать темы
Вы не можете отвечать на сообщения
Вы не можете редактировать свои сообщения
Вы не можете удалять свои сообщения
Вы не можете добавлять вложения

Перейти:  

!ВНИМАНИЕ!
 Ресурс не предоставляет электронные версии произведений, а занимается лишь коллекционированием и каталогизацией ссылок, присылаемых и публикуемых на форуме нашими читателями. Если вы являетесь правообладателем какого-либо представленного материала и не желаете чтобы ссылка на него находилась в нашем каталоге, свяжитесь с нами и мы незамедлительно удалим её. Файлы для обмена на трекере предоставлены пользователями сайта, и администрация не несёт ответственности за их содержание. Просьба не заливать файлы, защищенные авторскими правами, а также файлы нелегального содержания!