На всех торрентах на трекере установлена скидка на скачивание в размере 100 процентов(а).
 Возможность скачивания торрента НЕ зависит от ограничений при низком ратио, низком аплоаде, требуемом ратио или требуемом аплоаде.


Начать новую тему Ответить на тему
Статистика раздачи
Размер: 5.75 ГБ | Добавлен: 18 фев 2014, 14:31 | Скачали: 0
Сидеров: 0  [0 байт/сек]    Личеров: 0  [0 байт/сек]
Пред. тема | След. тема 

Автор
Сообщение

СообщениеДобавлено: 18 фев 2014, 14:31 

Вкратце
Генрих Харрер, офицер Рейха, человек, у которого было все - успех, красота, известность. Но ему было мало земной славы. Оставив дома беременную жену, он отправляется на покорение самого неприступного пика в Гималаях. Этот подвиг должен увековечить его имя. Однако впереди его ждет не успешное восхождение, а смертельная опасность, вражеский плен, долгие скитания. Наконец он добирается до таинственного тибетского города Лхаса, где ему предстоит провести долгих семь лет, и где молодой Далай Лама делает его своим приближенным. И здесь, в стране, лежащей за границами цивилизации, ему придется пережить события, которые навсегда изменят его жизнь...


Название: Семь лет в Тибете
Оригинальное название: Seven Years in Tibet
Год выпуска: 1997
Жанр: Драма, приключения, военный, биография, история, экранизация
Выпущено: США, Великобритания, Applecross, Mandalay Entertainment, Reperage & Vanguard Films
Режиссер: Жан-Жак Анно

В ролях: Брэд Питт, Дэвид Тьюлис, Б.Д. Вонг, Мако, Дэнни Дензонгпа, Виктор Вонг, Ингеборга Дапкунайте, Цзямъян Ванчук, Лакпа Тсамшо, Джетсун Пема, Aмa Aшe Дoнгтзe, Зoнaм Вaнгчук, Дoржee Tсeринг, Рик Янг, Нгаванг Хoжoр, Дункан Фрайзер, Бенедикк Блайт

Перевод: Профессиональный многоголосый




Формат: MKV
Качество: BDRip 1080p (исходник Blu-ray)
Видео: 1280x534, 4 124 Кбит/сек, 23.976 кадр/сек, AVC, x264, High@L4.1, 0.252 Бит/[Пиксели*Кадры], 2pass
Аудио 1: AC3 5.1 48 kHz 640 kbps - Многоголосый закадровый, Видеосервис
Аудио 2: AC3 5.1 48 kHz 640 kbps - Многоголосый закадровый, Супербит
Аудио 3: AC3 5.1 48 kHz 640 kbps - English
Чаптеры: есть
Субтитры: Russian
Продолжительность: 02:16:08
Автор рипа: Сообщество:


Format : Matroska
Format version : Version 2
File size : 5.75 GiB
Duration : 2h 16mn
Overall bit rate : 6 046 Kbps
Movie name : Sem' let v Tibete.(1997).BDRip.720p.[denis100]
Encoded date : UTC 2014-02-17 09:30:53
Writing application : mkvmerge v5.8.0 ('No Sleep / Pillow') built on Sep 2 2012 15:37:04
Writing library : libebml v1.2.3 + libmatroska v1.3.0

Video
ID : 1
Format : AVC
Format/Info : Advanced Video Codec
Format profile : High@L4.1
Format settings, CABAC : Yes
Format settings, ReFrames : 11 frames
Codec ID : V_MPEG4/ISO/AVC
Duration : 2h 16mn
Bit rate : 4 124 Kbps
Width : 1 280 pixels
Height : 534 pixels
Display aspect ratio : 2.40:1
Frame rate mode : Constant
Frame rate : 23.976 fps
Color space : YUV
Chroma subsampling : 4:2:0
Bit depth : 8 bits
Scan type : Progressive
Bits/(Pixel*Frame) : 0.252
Stream size : 3.81 GiB (66%)
Title : Sem' let v Tibete.(1997).BDRip.720p.[denis100]
Writing library : x264 core 138 r2358 9e941d1
Encoding settings : cabac=1 / ref=11 / deblock=1:-3:-3 / analyse=0x3:0x133 / me=umh / subme=11 / psy=1 / psy_rd=1.00:0.10 / mixed_ref=1 / me_range=32 / chroma_me=1 / trellis=2 / 8x8dct=1 / cqm=0 / deadzone=21,11 / fast_pskip=0 / chroma_qp_offset=-3 / threads=6 / lookahead_threads=1 / sliced_threads=0 / nr=0 / decimate=1 / interlaced=0 / bluray_compat=0 / constrained_intra=0 / bframes=7 / b_pyramid=2 / b_adapt=2 / b_bias=0 / direct=3 / weightb=1 / open_gop=0 / weightp=2 / keyint=240 / keyint_min=23 / scenecut=40 / intra_refresh=0 / rc=2pass / mbtree=0 / bitrate=4124 / ratetol=1.0 / qcomp=0.60 / qpmin=0 / qpmax=69 / qpstep=4 / cplxblur=20.0 / qblur=0.5 / ip_ratio=1.40 / pb_ratio=1.30 / aq=1:0.80
Language : English
Default : Yes
Forced : No

Audio #1
ID : 2
Format : AC-3
Format/Info : Audio Coding 3
Mode extension : CM (complete main)
Format settings, Endianness : Big
Codec ID : A_AC3
Duration : 2h 16mn
Bit rate mode : Constant
Bit rate : 640 Kbps
Channel(s) : 6 channels
Channel positions : Front: L C R, Side: L R, LFE
Sampling rate : 48.0 KHz
Bit depth : 16 bits
Compression mode : Lossy
Stream size : 623 MiB (11%)
Title : Многоголосый закадровый, Видеосервис
Language : Russian
Default : Yes
Forced : No

Audio #2
ID : 3
Format : AC-3
Format/Info : Audio Coding 3
Mode extension : CM (complete main)
Format settings, Endianness : Big
Codec ID : A_AC3
Duration : 2h 16mn
Bit rate mode : Constant
Bit rate : 640 Kbps
Channel(s) : 6 channels
Channel positions : Front: L C R, Side: L R, LFE
Sampling rate : 48.0 KHz
Bit depth : 16 bits
Compression mode : Lossy
Stream size : 623 MiB (11%)
Title : Многоголосый закадровый, Супербит
Language : Russian
Default : No
Forced : No

Audio #3
ID : 4
Format : AC-3
Format/Info : Audio Coding 3
Mode extension : CM (complete main)
Format settings, Endianness : Big
Codec ID : A_AC3
Duration : 2h 16mn
Bit rate mode : Constant
Bit rate : 640 Kbps
Channel(s) : 6 channels
Channel positions : Front: L C R, Side: L R, LFE
Sampling rate : 48.0 KHz
Bit depth : 16 bits
Compression mode : Lossy
Stream size : 623 MiB (11%)
Title : English
Language : English
Default : No
Forced : No

Text
ID : 5
Format : UTF-8
Codec ID : S_TEXT/UTF8
Codec ID/Info : UTF-8 Plain Text
Title : russian
Language : Russian
Default : No
Forced : No

Menu
00:00:00.000 : en:00:00:00.000
00:08:18.414 : en:00:08:18.414
00:17:13.490 : en:00:17:13.490
00:30:13.895 : en:00:30:13.895
00:34:56.594 : en:00:34:56.594
00:40:01.273 : en:00:40:01.273
00:53:52.145 : en:00:53:52.145
00:58:26.794 : en:00:58:26.794
01:09:41.010 : en:01:09:41.010
01:16:54.318 : en:01:16:54.318
01:24:45.205 : en:01:24:45.205
01:32:52.608 : en:01:32:52.608
01:40:29.565 : en:01:40:29.565
01:48:12.652 : en:01:48:12.652
01:58:05.286 : en:01:58:05.286
02:05:30.481 : en:02:05:30.481
загрузка...
Правила, инструкции, FAQ!!!
Торрент  Добавлен [18 фев 2014, 14:31] Скачать торрент
Скачать торрент
[ Размер 29.26 КБ / Просмотров 7 ]

Статус  
 
Размер  5.75 ГБ
Приватный: Нет (DHT включён)
.torrent скачан  0
Как залить торрент? | Как скачать Torrent? | Как смотреть и слушать онлайн?  


     Отправить личное сообщение
   
Страница 1 из 1
Показать сообщения за:  Поле сортировки  
Начать новую тему Ответить на тему

   Похожие торренты   Автор   Ответы   Просмотры   Последнее сообщение 
В этой теме нет новых непрочитанных сообщений. Скачать торрент Семь лет в Тибете / Seven Years in Tibet (1997) BDRip *RERip*

в форуме Приключения, Размер: 2.18 ГБ, Здоровье: 100%

Anonymous

0
116|6

55
28

18 фев 2014, 14:37

Anonymous Перейти к последнему сообщению

В этой теме нет новых непрочитанных сообщений. Скачать торрент Семь лет в Тибете / Seven Years in Tibet (1997) BDRip 1080p

в форуме 720p | 1080p, Размер: 11.53 ГБ, Здоровье: 0%

Anonymous

0
0|0

23
0

18 фев 2014, 14:42

Anonymous Перейти к последнему сообщению

В этой теме нет новых непрочитанных сообщений. Скачать торрент Проверен (Psychedelic rock/Kraut rock/Post rock/Minimal) Дискография The Winter War In Tibet / Зимняя Война в Тибете - 2009, MP3 (tracks), 320 kbps

в форуме Русский Рок, Размер: 2.78 ГБ, Здоровье: 0%

Anonymous

0
0|0

0
0

21 авг 2016, 08:23

Anonymous Перейти к последнему сообщению

В этой теме нет новых непрочитанных сообщений. Скачать торрент Проверен Семь минут / 7 Minutes (2014) BDRip 720p | L2

в форуме 720p | 1080p, Размер: 2.51 ГБ, Здоровье: 100%

Гость

0
315|40

279
819

27 дек 2015, 17:58

Гость Перейти к последнему сообщению

В этой теме нет новых непрочитанных сообщений. Скачать торрент Проверен (Progressive rock) Tibet - Tibet - 1978, FLAC (image+.cue), lossless

в форуме Progressive & Art-Rock, Размер: 240.82 МБ, Здоровье: 0%

Anonymous

0
0|0

1
0

30 авг 2016, 17:57

Anonymous Перейти к последнему сообщению



Сейчас этот форум просматривают: нет зарегистрированных пользователей и гости: 1


Вы не можете начинать темы
Вы не можете отвечать на сообщения
Вы не можете редактировать свои сообщения
Вы не можете удалять свои сообщения
Вы не можете добавлять вложения

Перейти:  

!ВНИМАНИЕ!
 Ресурс не предоставляет электронные версии произведений, а занимается лишь коллекционированием и каталогизацией ссылок, присылаемых и публикуемых на форуме нашими читателями. Если вы являетесь правообладателем какого-либо представленного материала и не желаете чтобы ссылка на него находилась в нашем каталоге, свяжитесь с нами и мы незамедлительно удалим её. Файлы для обмена на трекере предоставлены пользователями сайта, и администрация не несёт ответственности за их содержание. Просьба не заливать файлы, защищенные авторскими правами, а также файлы нелегального содержания!