На всех торрентах на трекере установлена скидка на скачивание в размере 100 процентов(а).
 Возможность скачивания торрента НЕ зависит от ограничений при низком ратио, низком аплоаде, требуемом ратио или требуемом аплоаде.


Начать новую тему Ответить на тему
Статистика раздачи
Размер: 2.17 ГБ | Добавлен: 18 фев 2014, 09:01 | Скачали: 0
Сидеров: 0  [0 байт/сек]    Личеров: 0  [0 байт/сек]
Пред. тема | След. тема 

Автор
Сообщение

СообщениеДобавлено: 18 фев 2014, 09:01 

О фильме:
В болотах Флориды находят зверски убитую девочку. В убийстве обвиняют Бобби Эрла Фергюсона. В то время, как этот человек, которому грозит электрический стул, находится в камере смертников, гарвардский профессор Пол Армстронг пытается еще раз расследовать это преступление.
Все глубже проникает он в сплетение расизма, интриг и преступлений, однако истина оказывается страшнее самых худших его предположений…



Название: Правое дело
Оригинальное название: Just Cause
Год выхода: 1995
Жанр: Криминал, триллер, драма
Режиссер: Арни Глимчер

В ролях: Шон Коннери, Лоренс Фишбёрн, Кейт Кэпшоу, Блэр Андервуд, Эд Харрис, Кристофер Мюррэй, Руби Ди, Скарлетт Йоханссон, Дэниел Дж. Траванти, Нед Битти




Страна: США
Продолжительность: 01:42:20
Перевод: Профессиональный (полное дублирование) Варус-Видео

Формат: mkv
Кодек: AVC
Качество: BDRip 720
Видео: 1280x536, 2847 кб/с, 23.976 fps
Звук: 48 kHz, AC3,2.0 , ~192.00 kbps avg



General
Unique ID : 212781632358266652216716866192240814969 (0xA0144071DD6024DFB0D5A2AEE9E02B79)
Complete name : D:КИНОPravoe.Delo.(1995).BDRip-AVC.[-=DoMiNo=-].mkv
Format : Matroska
Format version : Version 2
File size : 2.17 GiB
Duration : 1h 42mn
Overall bit rate : 3 039 Kbps
Encoded date : UTC 2014-02-17 23:32:20
Writing application : mkvmerge v5.8.0 ('No Sleep / Pillow') built on Sep 2 2012 15:37:04
Writing library : libebml v1.2.3 + libmatroska v1.3.0

Video
ID : 1
Format : AVC
Format/Info : Advanced Video Codec
Format profile : High@L4.1
Format settings, CABAC : Yes
Format settings, ReFrames : 12 frames
Codec ID : V_MPEG4/ISO/AVC
Duration : 1h 42mn
Bit rate : 2 847 Kbps
Width : 1 280 pixels
Height : 536 pixels
Display aspect ratio : 2.40:1
Frame rate mode : Constant
Frame rate : 23.976 fps
Color space : YUV
Chroma subsampling : 4:2:0
Bit depth : 8 bits
Scan type : Progressive
Bits/(Pixel*Frame) : 0.173
Stream size : 1.99 GiB (92%)
Writing library : x264 core 125 r2208 d9d2288
Encoding settings : cabac=1 / ref=12 / deblock=1:0:0 / analyse=0x3:0x113 / me=umh / subme=11 / psy=1 / psy_rd=1.00:0.02 / mixed_ref=1 / me_range=28 / chroma_me=1 / trellis=2 / 8x8dct=1 / cqm=0 / deadzone=21,11 / fast_pskip=0 / chroma_qp_offset=-6 / threads=6 / lookahead_threads=6 / sliced_threads=0 / slices=4 / nr=0 / decimate=1 / interlaced=0 / bluray_compat=0 / constrained_intra=0 / bframes=6 / b_pyramid=2 / b_adapt=2 / b_bias=0 / direct=3 / weightb=1 / open_gop=1 / weightp=2 / keyint=240 / keyint_min=23 / scenecut=40 / intra_refresh=0 / rc_lookahead=60 / rc=2pass / mbtree=1 / bitrate=2847 / ratetol=1.0 / qcomp=0.60 / qpmin=0 / qpmax=69 / qpstep=4 / cplxblur=20.0 / qblur=0.5 / vbv_maxrate=17500 / vbv_bufsize=14000 / nal_hrd=none / ip_ratio=1.40 / aq=2:1.50
Default : Yes
Forced : No
Color primaries : Generic film

Audio
ID : 2
Format : AC-3
Format/Info : Audio Coding 3
Mode extension : CM (complete main)
Format settings, Endianness : Big
Codec ID : A_AC3
Duration : 1h 42mn
Bit rate mode : Constant
Bit rate : 192 Kbps
Channel(s) : 2 channels
Channel positions : Front: L R
Sampling rate : 48.0 KHz
Bit depth : 16 bits
Compression mode : Lossy
Stream size : 141 MiB (6%)
Title : AC3 2.0 Dubl-Варус Видео
Language : Russian
Default : Yes
Forced : No
загрузка...
Правила, инструкции, FAQ!!!
Торрент  Добавлен [18 фев 2014, 09:01] Скачать торрент
Скачать торрент
[ Размер 11.49 КБ / Просмотров 6 ]

Статус  
 
Размер  2.17 ГБ
Приватный: Нет (DHT включён)
.torrent скачан  0
Как залить торрент? | Как скачать Torrent? | Как смотреть и слушать онлайн?  


     Отправить личное сообщение
   
Страница 1 из 1
Показать сообщения за:  Поле сортировки  
Начать новую тему Ответить на тему

   Похожие торренты   Автор   Ответы   Просмотры   Последнее сообщение 
В этой теме нет новых непрочитанных сообщений. Скачать торрент Правое дело / Just Cause (1995) HDRip

в форуме Триллеры, Размер: 1.45 ГБ, Здоровье: 100%

Anonymous

0
2|0

37
1

18 фев 2014, 09:05

Anonymous Перейти к последнему сообщению

В этой теме нет новых непрочитанных сообщений. Скачать торрент Дело в тебе / A Case of You (2013) BDRip 720p | L

в форуме 720p | 1080p, Размер: 3.94 ГБ, Здоровье: 0%

Anonymous

0
0|0

32
0

30 апр 2014, 22:20

Anonymous Перейти к последнему сообщению

В этой теме нет новых непрочитанных сообщений. Скачать торрент Проверен Гарднер, Эрл Стенли - Сборник.Гиблое дело - Дело о нерешительной хостессе.Дело о тайне приемной дочери [Николай Козий, 1993, 32 kbps]

в форуме Детектив и Боевики, Размер: 268.4 МБ, Здоровье: 100%

Anonymous

0
3|1

0
0

20 ноя 2016, 10:24

Anonymous Перейти к последнему сообщению

В этой теме нет новых непрочитанных сообщений. Скачать торрент Проверен Роб Рой / Rob Roy (1995) BDRip 720p | P, A

в форуме 720p | 1080p, Размер: 4.37 ГБ, Здоровье: 75%

Гость

0
9|12

63
0

26 июл 2015, 20:49

Гость Перейти к последнему сообщению

В этой теме нет новых непрочитанных сообщений. Скачать торрент Проверен Дым / Smoke (1995) BDRip 720p

в форуме 720p | 1080p, Размер: 4.97 ГБ, Здоровье: 100%

Anonymous

0
110|89

59
108

31 май 2015, 20:46

Anonymous Перейти к последнему сообщению



Сейчас этот форум просматривают: нет зарегистрированных пользователей и гости: 2


Вы не можете начинать темы
Вы не можете отвечать на сообщения
Вы не можете редактировать свои сообщения
Вы не можете удалять свои сообщения
Вы не можете добавлять вложения

Перейти:  

!ВНИМАНИЕ!
 Ресурс не предоставляет электронные версии произведений, а занимается лишь коллекционированием и каталогизацией ссылок, присылаемых и публикуемых на форуме нашими читателями. Если вы являетесь правообладателем какого-либо представленного материала и не желаете чтобы ссылка на него находилась в нашем каталоге, свяжитесь с нами и мы незамедлительно удалим её. Файлы для обмена на трекере предоставлены пользователями сайта, и администрация не несёт ответственности за их содержание. Просьба не заливать файлы, защищенные авторскими правами, а также файлы нелегального содержания!