На всех торрентах на трекере установлена скидка на скачивание в размере 100 процентов(а).
 Возможность скачивания торрента НЕ зависит от ограничений при низком ратио, низком аплоаде, требуемом ратио или требуемом аплоаде.


Начать новую тему Ответить на тему
Статистика раздачи
Размер: 6.52 ГБ | Добавлен: 17 фев 2014, 14:24 | Скачали: 0
Сидеров: 0  [0 байт/сек]    Личеров: 0  [0 байт/сек]
Пред. тема | След. тема 

Автор
Сообщение

СообщениеДобавлено: 17 фев 2014, 14:24 

«It started with an accident in space . . . and led to the terrifying secret in . . . HANGAR 18»



Страна: США / Sunn Classic Pictures Inc.
Жанр: фантастика, боевик, триллер, биография
Год выпуска: 1980
Продолжительность: 01:37:30

Перевод:
Профессиональный (дублированный) - Советский дубляж (со вставками двухголосого закадрового)
Профессиональный (двухгоголосый, закадровый): НТВ+
Авторский (одноголосый): Юрий Сербин

Cубтитры: нет
Оригинальная аудиодорожка: английский

Режиссер: Джеймс Л. Конуэй / James L. Conway

В ролях: Гари Коллинз, Роберт Вон, Джеймс Хэмптон, Филип Эбботт, Джозеф Кампанелла, Памела Беллвуд, Том Хэллик, Стивен Китс, Уильям Шэллерт, Дэррен МакГэвин...

Роли дублировали: Игорь Окрепилов, Александр Демьяненко, Вячеслав Захаров, Юрий Дедович, Владимир Татосов...

Описание: Во время запуска спутника с космического челнока NASA происходит катастрофа, в результате которой погибает один из астронавтов. Как потом выясняется, причиной взрыва становится столкновение спутника с НЛО. Неопознанный объект совершает аварийную посадку на Земле и попадает в руки спецслужб правительства. Небольшая группа военных и политиков, опасающихся ненужной и рискованной шумихи вокруг этого ЧП накануне президентских выборов, делают все, чтобы сохранить происшествие в тайне. Вернувшихся на землю астронавтов изолируют, а НЛО отправляют для исследований на военную базу и прячут в ангаре под №18. Но друзья погибшего астронавта пытаются узнать правду о загадочном объекте, встреченном на орбите, и не хотят сидеть сложа руки, и предпринимают собственное и весьма рискованное расследование...
В 80-х годах этот фильм демонстрировался в кинотеатрах по всему СССР и снискал большую популярность у зрителей.






Качество: BDRip 1080p / Blu-ray 1080p
Формат: MKV

Видео: 1920x1080 (16:9), 23.976 fps, H264 ~ 8032 kbps avg, 0.162 bit/pixel
Аудио 1: 48 kHz, Dolby AC3, 2 ch, 192 kbps, русский дублированный
Аудио 2: 48 kHz, Dolby AC3, 2 ch, 192 kbps, русский двухгоголосый
Аудио 3: 48 kHz, Dolby AC3, 2 ch, 192 kbps, русский авторский
Аудио 4: 48 kHz, DTS, 1 ch, 768 kbps, английский
Аудио 5: 48 kHz, Dolby AC3, 2 ch, 192 kbps, английский

Дополнительно: Фильм разбит на главы, как на оригинальном Blu-ray диске

Раздача от:
Общее
Полное имя : Angar.18.1980.D.BDRip.1080p_[New-Team]_by_avproh.mkv
Формат : Matroska
Версия формата : Version 4 / Version 2
Размер файла : 6,52 Гбайт
Продолжительность : 1 ч. 37 м.
Общий поток : 9570 Кбит/сек
Дата кодирования : UTC 2014-02-17 06:13:43
Программа кодирования : mkvmerge v6.7.0 ('Back to the Ground') 64bit built on Jan 8 2014 15:10:52
Библиотека кодирования : libebml v1.3.0 + libmatroska v1.4.1

Видео
Идентификатор : 1
Формат : AVC
Формат/Информация : Advanced Video Codec
Профиль формата : High@L4.1
Параметр CABAC формата : Да
Параметр ReFrames формата : 4 кадра
Идентификатор кодека : V_MPEG4/ISO/AVC
Продолжительность : 1 ч. 37 м.
Битрейт : 8032 Кбит/сек
Ширина : 1920 пикселей
Высота : 1080 пикселей
Соотношение сторон : 16:9
Режим частоты кадров : Постоянный
Частота кадров : 23,976 кадра/сек
Цветовое пространство : YUV
Субдискретизация насыщенности : 4:2:0
Битовая глубина : 8 бит
Тип развёртки : Прогрессивная
Бит/(Пиксели*Кадры) : 0.162
Размер потока : 5,34 Гбайт (82%)
Библиотека кодирования : x264 core 138 r2356 a1d3d17
Настройки программы : cabac=1 / ref=4 / deblock=1:-3:-3 / analyse=0x3:0x113 / me=umh / subme=10 / psy=1 / psy_rd=1.00:0.05 / mixed_ref=1 / me_range=32 / chroma_me=1 / trellis=2 / 8x8dct=1 / cqm=0 / deadzone=21,11 / fast_pskip=0 / chroma_qp_offset=-3 / threads=9 / lookahead_threads=1 / sliced_threads=0 / nr=0 / decimate=0 / interlaced=0 / bluray_compat=0 / constrained_intra=0 / bframes=8 / b_pyramid=2 / b_adapt=2 / b_bias=0 / direct=3 / weightb=1 / open_gop=0 / weightp=2 / keyint=240 / keyint_min=24 / scenecut=40 / intra_refresh=0 / rc_lookahead=40 / rc=2pass / mbtree=1 / bitrate=8032 / ratetol=1.0 / qcomp=0.60 / qpmin=0 / qpmax=69 / qpstep=4 / cplxblur=20.0 / qblur=0.5 / ip_ratio=1.40 / aq=1:1.00
Язык : English
Default : Да
Forced : Нет

Аудио #1
Идентификатор : 2
Формат : AC-3
Формат/Информация : Audio Coding 3
Расширение режима : CM (complete main)
Параметр Endianness формата : Big
Идентификатор кодека : A_AC3
Продолжительность : 1 ч. 37 м.
Вид битрейта : Постоянный
Битрейт : 192 Кбит/сек
Каналы : 2 канала
Расположение каналов : Front: L R
Частота : 48,0 КГц
Битовая глубина : 16 бит
Метод сжатия : С потерями
Размер потока : 134 Мбайт (2%)
Заголовок : Dub
Язык : Russian
Default : Да
Forced : Нет

Аудио #2
Идентификатор : 3
Формат : AC-3
Формат/Информация : Audio Coding 3
Расширение режима : CM (complete main)
Параметр Endianness формата : Big
Идентификатор кодека : A_AC3
Продолжительность : 1 ч. 37 м.
Вид битрейта : Постоянный
Битрейт : 192 Кбит/сек
Каналы : 2 канала
Расположение каналов : Front: L R
Частота : 48,0 КГц
Битовая глубина : 16 бит
Метод сжатия : С потерями
Размер потока : 134 Мбайт (2%)
Заголовок : DVO NTV+
Язык : Russian
Default : Нет
Forced : Нет

Аудио #3
Идентификатор : 4
Формат : AC-3
Формат/Информация : Audio Coding 3
Расширение режима : CM (complete main)
Параметр Endianness формата : Big
Идентификатор кодека : A_AC3
Продолжительность : 1 ч. 37 м.
Вид битрейта : Постоянный
Битрейт : 192 Кбит/сек
Каналы : 2 канала
Расположение каналов : Front: L R
Частота : 48,0 КГц
Битовая глубина : 16 бит
Метод сжатия : С потерями
Размер потока : 134 Мбайт (2%)
Заголовок : AVO (Serbin)
Язык : Russian
Default : Нет
Forced : Нет

Аудио #4
Идентификатор : 5
Формат : DTS
Формат/Информация : Digital Theater Systems
Режим : 16
Параметр Endianness формата : Big
Идентификатор кодека : A_DTS
Продолжительность : 1 ч. 37 м.
Вид битрейта : Постоянный
Битрейт : 768 Кбит/сек
Каналы : 1 канал
Расположение каналов : Front: C
Частота : 48,0 КГц
Битовая глубина : 16 бит
Метод сжатия : С потерями
Размер потока : 536 Мбайт (8%)
Заголовок : Original
Язык : English
Default : Нет
Forced : Нет

Аудио #5
Идентификатор : 6
Формат : AC-3
Формат/Информация : Audio Coding 3
Расширение режима : CM (complete main)
Параметр Endianness формата : Big
Идентификатор кодека : A_AC3
Продолжительность : 1 ч. 37 м.
Вид битрейта : Постоянный
Битрейт : 192 Кбит/сек
Каналы : 2 канала
Расположение каналов : Front: L R
Частота : 48,0 КГц
Битовая глубина : 16 бит
Метод сжатия : С потерями
Размер потока : 134 Мбайт (2%)
Язык : English
Default : Нет
Forced : Нет

Меню
00:00:00.000 : en:00:00:00.000
00:09:18.475 : en:00:09:18.475
00:22:47.199 : en:00:22:47.199
00:36:22.555 : en:00:36:22.555
00:45:44.408 : en:00:45:44.408
01:00:58.780 : en:01:00:58.780
01:10:01.406 : en:01:10:01.406
01:17:40.739 : en:01:17:40.739




загрузка...
Правила, инструкции, FAQ!!!
Торрент  Добавлен [17 фев 2014, 14:24] Скачать торрент
Скачать торрент
[ Размер 17 КБ / Просмотров 9 ]

Статус  
 
Размер  6.52 ГБ
Приватный: Нет (DHT включён)
.torrent скачан  0
Как залить торрент? | Как скачать Torrent? | Как смотреть и слушать онлайн?  


     Отправить личное сообщение
   
Страница 1 из 1
Показать сообщения за:  Поле сортировки  
Начать новую тему Ответить на тему

   Похожие торренты   Автор   Ответы   Просмотры   Последнее сообщение 
В этой теме нет новых непрочитанных сообщений. Скачать торрент Ангар 18 / Hangar 18 (1980) SATRip | НТВ+

в форуме Фантастика, Фэнтези, Размер: 1.4 ГБ, Здоровье: 100%

Anonymous

0
3|0

19
12

28 дек 2013, 13:42

Anonymous Перейти к последнему сообщению

В этой теме нет новых непрочитанных сообщений. Скачать торрент Проверен Сияние / The Shining (1980) BDRip 1080p | Полная версия

в форуме 720p | 1080p, Размер: 11.55 ГБ, Здоровье: 100%

Anonymous

0
12|3

47
68

27 ноя 2014, 19:10

Anonymous Перейти к последнему сообщению

В этой теме нет новых непрочитанных сообщений. Скачать торрент Проверен Троих нужно убрать / 3 Hommes A Abattre (1980) BDRip 1080p | D, P

в форуме 720p | 1080p, Размер: 11.55 ГБ, Здоровье: 100%

Гость

0
39|37

79
54

29 янв 2016, 19:38

Гость Перейти к последнему сообщению

В этой теме нет новых непрочитанных сообщений. Скачать торрент Проверен Сага: Пятница 13-е / Friday the 13th Saga (1980-1989) BDRip 1080p | P, P2, A

в форуме Антологии, Размер: 81.89 ГБ, Здоровье: 33%

Гость

0
1|3

429
10

13 дек 2014, 09:31

Гость Перейти к последнему сообщению

В этой теме нет новых непрочитанных сообщений. Скачать торрент Проверен The Beatles: 1 + (1962-1980) All 50 Videos [Remastered Deluxe] (2015) BDRip-1080p от HDLine

в форуме Концерты (HD-Video), Размер: 13.55 ГБ, Здоровье: 100%

Гость

0
402|10

165
88

18 ноя 2015, 20:13

Гость Перейти к последнему сообщению



Сейчас этот форум просматривают: нет зарегистрированных пользователей и гости: 1


Вы не можете начинать темы
Вы не можете отвечать на сообщения
Вы не можете редактировать свои сообщения
Вы не можете удалять свои сообщения
Вы не можете добавлять вложения

Перейти:  

!ВНИМАНИЕ!
 Ресурс не предоставляет электронные версии произведений, а занимается лишь коллекционированием и каталогизацией ссылок, присылаемых и публикуемых на форуме нашими читателями. Если вы являетесь правообладателем какого-либо представленного материала и не желаете чтобы ссылка на него находилась в нашем каталоге, свяжитесь с нами и мы незамедлительно удалим её. Файлы для обмена на трекере предоставлены пользователями сайта, и администрация не несёт ответственности за их содержание. Просьба не заливать файлы, защищенные авторскими правами, а также файлы нелегального содержания!