На всех торрентах на трекере установлена скидка на скачивание в размере 100 процентов(а).
 Возможность скачивания торрента НЕ зависит от ограничений при низком ратио, низком аплоаде, требуемом ратио или требуемом аплоаде.


Начать новую тему Ответить на тему
Статистика раздачи
Размер: 2.16 ГБ | Добавлен: 17 фев 2014, 11:46 | Скачали: 0
Сидеров: 14  [0 байт/сек]    Личеров: 5  [0 байт/сек]
Пред. тема | След. тема 

Автор
Сообщение

СообщениеДобавлено: 17 фев 2014, 11:46 

Страна: США
Жанр: Комедия
Год выпуска: 2006
Продолжительность: 01:23:48

Перевод: Одноголосый закадровый
Оригинальная аудиодорожка: английский
Cубтитры: английские
Режиссер: Ларри Чарльз / Larry Charles

В ролях: Саша Барон Коэн, Кен Давитян, Луэнелль, Памела Андерсон, Боб Барр, Митчел Фальк, Алан Кийес, Жан-Пьерр Парент

Описание: Телеведущий из Казахстана Борат отправляется в США, чтобы сделать репортаж об этой «величайшей в мире стране». Однако по прибытии оказалось, что главная цель его визита — поиски Памелы Андерсон с целью жениться на ней, а вовсе не съемки документального фильма…


Доп. информация: Перевод доступен благодаря следующим товарищам: mihey10, DarveSh, farivan, DREADG, seryoga84, Pe3aK, MrRose, Pr0peLLer
Рейтинг R - Детям до 17 лет обязательно присутствие взрослого




Качество видео: BDRip-AVC
Формат видео: MKV

Видео: x264, 1152x624, 23.976 fps, 2 800 Kbps, 0.162 bit/pixel
Аудио #1: AC3, 16 bits, 448 kbps, 48,0 kHz, 5.1
Аудио #2: AC3, 16 bits, 448 kbps, 48,0 kHz, 5.1
Формат субтитров: softsub (SRT)
Рип: hintoz
Работа со звуком: DREADG
Релиз: Переулок Переводмана
MediaInfo
General
Unique ID : 199433966417981929245267065983565758112 (0x960995B47C223E269AC8D52C4C5AFEA0)
Complete name : F:\Video\Upload\Films\Borat.2006.BDRip.AVC.AVO.Kotov-hintoz.mkv
Format : Matroska
Format version : Version 4 / Version 2
File size : 2.16 GiB
Duration : 1h 23mn
Overall bit rate : 3 698 Kbps
Movie name : Rip by hintoz
Encoded date : UTC 2013-03-24 10:16:27
Writing application : mkvmerge v6.1.0 ('Old Devil') built on Mar 2 2013 14:32:37
Writing library : libebml v1.3.0 + libmatroska v1.4.0

Video
ID : 1
Format : AVC
Format/Info : Advanced Video Codec
Format profile : High@L3.1
Format settings, CABAC : Yes
Format settings, ReFrames : 5 frames
Codec ID : V_MPEG4/ISO/AVC
Duration : 1h 23mn
Bit rate : 2 799 Kbps
Width : 1 152 pixels
Height : 624 pixels
Display aspect ratio : 1.85:1
Frame rate mode : Constant
Frame rate : 23.976 fps
Color space : YUV
Chroma subsampling : 4:2:0
Bit depth : 8 bits
Scan type : Progressive
Bits/(Pixel*Frame) : 0.162
Stream size : 1.60 GiB (74%)
Title : Borat BDRip-AVC
Writing library : x264 core 130 r2273 b3065e6
Encoding settings : cabac=1 / ref=5 / deblock=1:0:0 / analyse=0x3:0x133 / me=umh / subme=10 / psy=1 / psy_rd=1.00:0.15 / mixed_ref=1 / me_range=32 / chroma_me=1 / trellis=2 / 8x8dct=1 / cqm=0 / deadzone=21,11 / fast_pskip=0 / chroma_qp_offset=-3 / threads=12 / lookahead_threads=1 / sliced_threads=0 / nr=0 / decimate=0 / interlaced=0 / bluray_compat=0 / constrained_intra=0 / bframes=4 / b_pyramid=2 / b_adapt=2 / b_bias=0 / direct=3 / weightb=1 / open_gop=0 / weightp=2 / keyint=240 / keyint_min=23 / scenecut=40 / intra_refresh=0 / rc_lookahead=40 / rc=2pass / mbtree=1 / bitrate=2799 / ratetol=1.0 / qcomp=0.60 / qpmin=0 / qpmax=69 / qpstep=4 / cplxblur=20.0 / qblur=0.5 / ip_ratio=1.40 / aq=1:1.00
Language : English
Default : Yes
Forced : No

Audio #1
ID : 2
Format : AC-3
Format/Info : Audio Coding 3
Mode extension : CM (complete main)
Format settings, Endianness : Big
Codec ID : A_AC3
Duration : 1h 23mn
Bit rate mode : Constant
Bit rate : 448 Kbps
Channel(s) : 6 channels
Channel positions : Front: L C R, Side: L R, LFE
Sampling rate : 48.0 KHz
Bit depth : 16 bits
Compression mode : Lossy
Stream size : 269 MiB (12%)
Title : AVO Вячеслав Котов
Language : Russian
Default : Yes
Forced : No

Audio #2
ID : 3
Format : AC-3
Format/Info : Audio Coding 3
Mode extension : CM (complete main)
Format settings, Endianness : Big
Codec ID : A_AC3
Duration : 1h 23mn
Bit rate mode : Constant
Bit rate : 448 Kbps
Channel(s) : 6 channels
Channel positions : Front: L C R, Side: L R, LFE
Sampling rate : 48.0 KHz
Bit depth : 16 bits
Compression mode : Lossy
Stream size : 269 MiB (12%)
Title : Original
Language : English
Default : No
Forced : No

Text
ID : 4
Format : UTF-8
Codec ID : S_TEXT/UTF8
Codec ID/Info : UTF-8 Plain Text
Title : Original
Language : English
Default : Yes
Forced : No

загрузка...
Правила, инструкции, FAQ!!!
Торрент  Добавлен [17 фев 2014, 11:46] Скачать торрент
Скачать торрент
[ Размер 11.44 КБ / Просмотров 18 ]

Статус  
 
Размер  2.16 ГБ
Приватный: Нет (DHT включён)
.torrent скачан  0
Как залить торрент? | Как скачать Torrent? | Как смотреть и слушать онлайн?  


     Отправить личное сообщение
   
Страница 1 из 1
Показать сообщения за:  Поле сортировки  
Начать новую тему Ответить на тему

   Похожие торренты   Автор   Ответы   Просмотры   Последнее сообщение 
В этой теме нет новых непрочитанных сообщений. Скачать торрент Борат / Borat: Cultural Learnings of America for Make Benefit Glorious Nation of Kazakhstan (Ларри Чарльз / Larry Charles) [2006 г., комедия, BDRip-AVC] Dub + Original + Subs (Rus, Eng, Ukr)

в форуме Комедии, Размер: 2.07 ГБ, Здоровье: 100%

Anonymous

0
56|5

72
2

12 фев 2014, 11:44

Anonymous Перейти к последнему сообщению

В этой теме нет новых непрочитанных сообщений. Скачать торрент Борат: Изучение американской культуры на благо славного народа Казахстана / Borat: Cultural Learnings of America for Make Benefit Glorious Nation of Kazakh (Ларри Чарльз / Larry Charles) [2006, США, комедия, BDRip] Dub

в форуме Комедии, Размер: 744.43 МБ, Здоровье: 100%

Anonymous

0
9|3

53
1

02 апр 2014, 12:06

Anonymous Перейти к последнему сообщению

В этой теме нет новых непрочитанных сообщений. Скачать торрент Проверен Отец невесты / Father of the Bride (Чарльз Шайер / Charles Shyer) 1991 г., комедия, семейный, BDRip, 480p] MVO, AVO, Original + sub(rus, eng)

в форуме Фильмы для iPod, iPhone, iPad, Размер: 1.62 ГБ, Здоровье: 100%

Гость

0
11|4

79
0

18 май 2015, 10:48

Гость Перейти к последнему сообщению

В этой теме нет новых непрочитанных сообщений. Скачать торрент Любимцы Америки / America's Sweethearts (Джо Рот / Joe Roth) [2001 г., комедия, DVDRip]

в форуме Комедии, Размер: 700.28 МБ, Здоровье: 0%

Anonymous

0
0|0

36
0

24 апр 2014, 14:06

Anonymous Перейти к последнему сообщению

В этой теме нет новых непрочитанных сообщений. Скачать торрент Чак и Ларри - Пожарная свадьба / I Now Pronounce You Chuck & Larry (Дэннис Дуган / Dennis Dugan) [2007 г., Комедия, HDRip] Dub

в форуме Комедии, Размер: 746.08 МБ, Здоровье: 100%

Anonymous

0
24|0

35
0

11 фев 2014, 09:15

Anonymous Перейти к последнему сообщению



Сейчас этот форум просматривают: нет зарегистрированных пользователей и гости: 3


Вы не можете начинать темы
Вы не можете отвечать на сообщения
Вы не можете редактировать свои сообщения
Вы не можете удалять свои сообщения
Вы не можете добавлять вложения

Перейти:  

!ВНИМАНИЕ!
 Ресурс не предоставляет электронные версии произведений, а занимается лишь коллекционированием и каталогизацией ссылок, присылаемых и публикуемых на форуме нашими читателями. Если вы являетесь правообладателем какого-либо представленного материала и не желаете чтобы ссылка на него находилась в нашем каталоге, свяжитесь с нами и мы незамедлительно удалим её. Файлы для обмена на трекере предоставлены пользователями сайта, и администрация не несёт ответственности за их содержание. Просьба не заливать файлы, защищенные авторскими правами, а также файлы нелегального содержания!
cron