На всех торрентах на трекере установлена скидка на скачивание в размере 100 процентов(а).
 Возможность скачивания торрента НЕ зависит от ограничений при низком ратио, низком аплоаде, требуемом ратио или требуемом аплоаде.


Начать новую тему Ответить на тему
Статистика раздачи
Размер: 5.28 ГБ | Добавлен: 17 фев 2014, 07:49 | Скачали: 0
Сидеров: 0  [0 байт/сек]    Личеров: 0  [0 байт/сек]
Пред. тема | След. тема 

Автор
Сообщение

СообщениеДобавлено: 17 фев 2014, 07:49 

Страна: США
Жанр: драма
Год выпуска: 2013

Продолжительность: 01:54:43


Перевод: Любительский (одноголосый) (Doctor_Joker) + Оригинальный
Субтитры: русские (Doctor_Joker),

Режиссер: Александр Пэйн / Alexander Payne

В ролях:

Брюс Дерн (Woody Grant), Уилл Форте (David Grant), Джун Скуиб (Kate Grant), Боб Оденкёрк (Ross Grant), Стейси Кич (Ed Pegram), Мэри Луиза Уилсон (Aunt Martha), Рэнс Ховард (Uncle Ray), Тим Дрисколл (Bart), Девин Рэтрей (Cole), Анджела МакЭван (Peg Nagy), Глендора Ститт (Aunt Betty), Элизабет Мур (Aunt Flo)


Описание: Рассказ пойдет про отца-алкоголика, который выиграл миллион долларов. Он не хочет отправляться сам в долгий путь из Монтаны в Небраску, чтобы забрать свой выигрыш. Его сын, которому далеко за двадцать, не верит, что билет выигрышный, но все равно решает отправиться вместе с отцом, чтобы уберечь его от опасностей и всяких неприятностей, а также сблизиться за время путешествия.




MPAA: R - Лицам до 17 лет обязательно присутствие взрослого


Качество: BDRip 720p
Контейнер: MKV
Видео: AVC, 1200x528 (2.25:1), 5500 kbps, 23,976 fps, 0,362 bpp
Аудио №1: русский / AC3 / 3 / 48 kHz / 448 kbps / 16 bit ||
Аудио №2: английский / AC3 / 3 / 48 kHz / 640 kbps / 16 bit
Навигация по главам: есть



General
Unique ID : 241307979070885153450330359807320706668 (0xB58A39ECE91BF694AF47F392A3D2CE6C)
Complete name : E:BDNebraska.2013.BDRip.720p.by.Дядя_Лёша.mkv
Format : Matroska
Format version : Version 4 / Version 2
File size : 5.28 GiB
Duration : 1h 54mn
Overall bit rate : 6 589 Kbps
Encoded date : UTC 2014-02-17 03:14:08
Writing application : mkvmerge v6.7.0 ('Back to the Ground') 64bit built on Jan 8 2014 15:10:52
Writing library : libebml v1.3.0 + libmatroska v1.4.1
Attachment : Yes

Video
ID : 1
Format : AVC
Format/Info : Advanced Video Codec
Format profile : High@L4.1
Format settings, CABAC : Yes
Format settings, ReFrames : 8 frames
Codec ID : V_MPEG4/ISO/AVC
Duration : 1h 54mn
Bit rate : 5 500 Kbps
Width : 1 200 pixels
Height : 528 pixels
Display aspect ratio : 2.25:1
Frame rate mode : Constant
Frame rate : 23.976 fps
Color space : YUV
Chroma subsampling : 4:2:0
Bit depth : 8 bits
Scan type : Progressive
Bits/(Pixel*Frame) : 0.362
Stream size : 4.30 GiB (81%)
Writing library : x264 core 132 r2310 76a5c3a
Encoding settings : cabac=1 / ref=8 / deblock=1:-1:-1 / analyse=0x3:0x113 / me=umh / subme=10 / psy=1 / psy_rd=1.00:0.15 / mixed_ref=1 / me_range=32 / chroma_me=1 / trellis=2 / 8x8dct=1 / cqm=0 / deadzone=21,11 / fast_pskip=0 / chroma_qp_offset=-3 / threads=3 / lookahead_threads=1 / sliced_threads=0 / nr=0 / decimate=0 / interlaced=0 / bluray_compat=0 / constrained_intra=0 / bframes=7 / b_pyramid=2 / b_adapt=2 / b_bias=0 / direct=3 / weightb=1 / open_gop=0 / weightp=2 / keyint=240 / keyint_min=24 / scenecut=40 / intra_refresh=0 / rc_lookahead=60 / rc=2pass / mbtree=0 / bitrate=5500 / ratetol=1.0 / qcomp=0.70 / qpmin=0 / qpmax=69 / qpstep=4 / cplxblur=20.0 / qblur=0.5 / vbv_maxrate=40000 / vbv_bufsize=30000 / nal_hrd=none / ip_ratio=1.40 / pb_ratio=1.30 / aq=1:0.80
Default : Yes
Forced : No

Audio #1
ID : 2
Format : AC-3
Format/Info : Audio Coding 3
Mode extension : CM (complete main)
Format settings, Endianness : Big
Codec ID : A_AC3
Duration : 1h 54mn
Bit rate mode : Constant
Bit rate : 448 Kbps
Channel(s) : 3 channels
Channel positions : Front: L C R
Sampling rate : 48.0 KHz
Bit depth : 16 bits
Compression mode : Lossy
Stream size : 368 MiB (7%)
Title : VO Doctor_Joker
Language : Russian
Default : Yes
Forced : No

Audio #2
ID : 3
Format : AC-3
Format/Info : Audio Coding 3
Mode extension : CM (complete main)
Format settings, Endianness : Big
Codec ID : A_AC3
Duration : 1h 54mn
Bit rate mode : Constant
Bit rate : 640 Kbps
Channel(s) : 3 channels
Channel positions : Front: L C R
Sampling rate : 48.0 KHz
Bit depth : 16 bits
Compression mode : Lossy
Stream size : 525 MiB (10%)
Title : Eng
Language : English
Default : No
Forced : No

Text
ID : 4
Format : UTF-8
Codec ID : S_TEXT/UTF8
Codec ID/Info : UTF-8 Plain Text
Title : rus Doctor_Joker
Language : Russian
Default : No
Forced : No

Menu
00:00:00.000 : en:
00:06:32.600 : en:
00:13:18.380 : en:
00:18:09.630 : en:
00:25:35.534 : en:
00:31:17.083 : en:
00:37:16.901 : en:
00:46:10.601 : en:
00:51:17.365 : en:
00:55:07.846 : en:
01:02:24.449 : en:
01:08:19.178 : en:
01:13:26.318 : en:
01:21:13.952 : en:
01:27:09.933 : en:
01:32:20.117 : en:
01:39:37.805 : en:
01:48:59.032 : en:
загрузка...
Правила, инструкции, FAQ!!!
Торрент  Добавлен [17 фев 2014, 07:49] Скачать торрент
Скачать торрент
[ Размер 13.86 КБ / Просмотров 4 ]

Статус  
 
Размер  5.28 ГБ
Приватный: Нет (DHT включён)
.torrent скачан  0
Как залить торрент? | Как скачать Torrent? | Как смотреть и слушать онлайн?  


     Отправить личное сообщение
   
Страница 1 из 1
Показать сообщения за:  Поле сортировки  
Начать новую тему Ответить на тему

   Похожие торренты   Автор   Ответы   Просмотры   Последнее сообщение 
В этой теме нет новых непрочитанных сообщений. Скачать торрент Проверен Небраска / Nebraska (2013) BDRip 1080p | P, A

в форуме 720p | 1080p, Размер: 10.95 ГБ, Здоровье: 0%

Гость

0
0|0

82
0

22 фев 2016, 18:10

Гость Перейти к последнему сообщению

В этой теме нет новых непрочитанных сообщений. Скачать торрент Небраска / Nebraska (Александр Пэйн / Alexander Payne) [2013, США, Драма, BDRip]

в форуме Драмы, Мелодрамы, Размер: 1.46 ГБ, Здоровье: 0%

Anonymous

0
0|0

42
0

03 мар 2014, 20:34

Anonymous Перейти к последнему сообщению

В этой теме нет новых непрочитанных сообщений. Скачать торрент Проверен [iPad] Небраска / Nebraska (Александр Пэйн / Alexander Payne ) [2013, США, Драма, BDRip, SD (576p)] MVO + Original + sub (rus, eng)

в форуме Фильмы для iPod, iPhone, iPad, Размер: 2 ГБ, Здоровье: 100%

Гость

0
39|13

40
1

18 май 2015, 10:33

Гость Перейти к последнему сообщению

В этой теме нет новых непрочитанных сообщений. Скачать торрент Проверен Mylene Farmer: Timeless 2013 - Le Film (2013) BDRip 720p

в форуме Концерты (HD-Video), Размер: 4.37 ГБ, Здоровье: 100%

Anonymous

0
511|2

119
7

18 сен 2014, 20:07

Anonymous Перейти к последнему сообщению

В этой теме нет новых непрочитанных сообщений. Скачать торрент Проверен (Rock) Nebraska - Дискография (2 релиза) - 2014, MP3, 320 kbps

в форуме Русский Рок, Размер: 45.11 МБ, Здоровье: 0%

Anonymous

0
0|0

0
0

21 авг 2016, 14:18

Anonymous Перейти к последнему сообщению



Сейчас этот форум просматривают: нет зарегистрированных пользователей и гости: 5


Вы не можете начинать темы
Вы не можете отвечать на сообщения
Вы не можете редактировать свои сообщения
Вы не можете удалять свои сообщения
Вы не можете добавлять вложения

Перейти:  

!ВНИМАНИЕ!
 Ресурс не предоставляет электронные версии произведений, а занимается лишь коллекционированием и каталогизацией ссылок, присылаемых и публикуемых на форуме нашими читателями. Если вы являетесь правообладателем какого-либо представленного материала и не желаете чтобы ссылка на него находилась в нашем каталоге, свяжитесь с нами и мы незамедлительно удалим её. Файлы для обмена на трекере предоставлены пользователями сайта, и администрация не несёт ответственности за их содержание. Просьба не заливать файлы, защищенные авторскими правами, а также файлы нелегального содержания!