На всех торрентах на трекере установлена скидка на скачивание в размере 100 процентов(а).
 Возможность скачивания торрента НЕ зависит от ограничений при низком ратио, низком аплоаде, требуемом ратио или требуемом аплоаде.


Начать новую тему Ответить на тему
Статистика раздачи
Размер: 2.18 ГБ | Добавлен: 16 фев 2014, 13:07 | Скачали: 0
Сидеров: 19  [0 байт/сек]    Личеров: 6  [0 байт/сек]
Пред. тема | След. тема 

Автор
Сообщение

СообщениеДобавлено: 16 фев 2014, 13:07 

Игры дьявола / Before the Devil Knows You're Dead

Страна: США, Великобритания / Funky Buddha Productions, Capitol
Жанр: Триллер, драма, криминал
Год выпуска: 2007
Продолжительность: 01:23:31

Перевод: Профессиональный (дублированный)
Cубтитры: русские
Оригинальная аудиодорожка: английский

Режиссер: Сидни Люмет / Sidney Lumet

В ролях: Филип Сеймур Хоффман, Этан Хоук, Альберт Финни, Мариса Томей, Алекса Палладино, Майкл Шеннон, Эми Райан, Сара Ливингстон, Брайан Ф. О’Бирн, Розмари Харрис

Описание: Два брата замыслили идеальное, как им кажется, преступление. В теории они должны получить огромную сумму денег, обойдясь при этом без оружия, жестокости и кровопролития. Более того, вероятность неудачи сведена к нулю. Однако хитроумный план идет прахом, когда соучастник героев самовольно меняет правила игры, и подвергает себя и подельников неоправданному риску. Преступники теряют контроль над ситуацией, а череда последующих событий, увы, никого не оставляет в безопасности...

Сэмпл

Релиз группы:

Качество видео: BDRip-AVC
Формат видео: MKV

Видео: H.264, 1024x560 (1,83:1), 23,976 кадр/сек, 1906 Кбит/сек, 0.139 bit/pixel
Аудио: 48 kHz, AC3 Dolby Digital, 3/2 (L,C,R,l,r) + LFE ch, ~384.00 kbps avg | RUS
Аудио 2: 48 kHz, AC3 Dolby Digital, 3/2 (L,C,R,l,r) + LFE ch, ~384.00 kbps avg | ENG
MediaInfo
General
Complete name : C:\фильмы\Igry.D'javola.2007.D.BDRip.x264.mkv
Format : Matroska
File size : 2.18 GiB
Duration : 1h 56mn
Overall bit rate : 2 674 Kbps
Movie name : -=POTROKS=-
Encoded date : UTC 2013-06-27 17:17:12
Writing application : mkvmerge v5.7.0 ('The Whirlwind') built on Jul 29 2012 15:12:35
Writing library : libebml v1.2.3 + libmatroska v1.3.0

Video
ID : 1
Format : AVC
Format/Info : Advanced Video Codec
Format profile : High@L4.1
Format settings, CABAC : Yes
Format settings, ReFrames : 9 frames
Muxing mode : Container profile=Unknown@4.1
Codec ID : V_MPEG4/ISO/AVC
Duration : 1h 56mn
Bit rate : 1 853 Kbps
Nominal bit rate : 1 906 Kbps
Width : 1 024 pixels
Height : 560 pixels
Display aspect ratio : 16:9
Frame rate mode : Variable
Frame rate : 23.976 fps
Resolution : 8 bits
Colorimetry : 4:2:0
Scan type : Progressive
Bits/(Pixel*Frame) : 0.135
Stream size : 1.51 GiB (69%)
Title : Igry.D'javola.2007.D.BDRip.x264.potroks
Writing library : x264 core 116 r2019M 9cc407d
Encoding settings : cabac=1 / ref=10 / deblock=1:-2:-2 / analyse=0x3:0x133 / me=umh / subme=9 / psy=1 / psy_rd=1.00:0.00 / mixed_ref=1 / me_range=48 / chroma_me=1 / trellis=1 / 8x8dct=1 / cqm=0 / deadzone=21,13 / fast_pskip=0 / chroma_qp_offset=-2 / threads=8 / sliced_threads=0 / nr=0 / decimate=1 / interlaced=0 / bluray_compat=0 / constrained_intra=0 / bframes=8 / b_pyramid=1 / b_adapt=2 / b_bias=0 / direct=3 / weightb=1 / open_gop=0 / weightp=2 / keyint=230 / keyint_min=23 / scenecut=40 / intra_refresh=0 / rc_lookahead=100 / rc=2pass / mbtree=1 / bitrate=1906 / ratetol=1.0 / qcomp=0.60 / qpmin=10 / qpmax=53 / qpstep=4 / cplxblur=20.0 / qblur=0.7 / ip_ratio=1.40 / aq=1:1.20

Audio #1
ID : 2
Format : AC-3
Format/Info : Audio Coding 3
Codec ID : A_AC3
Duration : 1h 56mn
Bit rate mode : Constant
Bit rate : 384 Kbps
Channel(s) : 6 channels
Channel positions : Front: L C R, Side: L R, LFE
Sampling rate : 48.0 KHz
Stream size : 321 MiB (14%)
Title : Dub AC3, 5.1 ch., 384 kbps
Language : Russian

Audio #2
ID : 3
Format : AC-3
Format/Info : Audio Coding 3
Codec ID : A_AC3
Duration : 1h 56mn
Bit rate mode : Constant
Bit rate : 384 Kbps
Channel(s) : 6 channels
Channel positions : Front: L C R, Side: L R, LFE
Sampling rate : 48.0 KHz
Stream size : 321 MiB (14%)
Title : Original AC3, 5.1 ch., 384 kbps

Text
ID : 4
Format : UTF-8
Codec ID : S_TEXT/UTF8
Codec ID/Info : UTF-8 Plain Text
Title : (SKVSM)
Language : Russian
Скриншоты

загрузка...
Правила, инструкции, FAQ!!!
Торрент  Добавлен [16 фев 2014, 13:07] Скачать торрент
Скачать торрент
[ Размер 11.51 КБ / Просмотров 6 ]

Статус  
 
Размер  2.18 ГБ
Приватный: Нет (DHT включён)
.torrent скачан  0
Как залить торрент? | Как скачать Torrent? | Как смотреть и слушать онлайн?  


     Отправить личное сообщение
   
Страница 1 из 1
Показать сообщения за:  Поле сортировки  
Начать новую тему Ответить на тему

   Похожие торренты   Автор   Ответы   Просмотры   Последнее сообщение 
В этой теме нет новых непрочитанных сообщений. Скачать торрент Признайте меня виновным / Find Me Guilty (Сидни Люмет / Sidney Lumet) [2006 г., Драма, комедия, криминал, BDRip]

в форуме Драмы, Мелодрамы, Размер: 1.63 ГБ, Здоровье: 0%

Anonymous

0
0|0

18
0

02 апр 2014, 08:24

Anonymous Перейти к последнему сообщению

В этой теме нет новых непрочитанных сообщений. Скачать торрент Телохранитель / London Boulevard (Уильям Монахэн / William Monahan) [2010, США, Великобритания, триллер, драма, криминал, BDRip] DUB + Original (Eng) + Subs (rus,eng)

в форуме Триллеры, Размер: 2.17 ГБ, Здоровье: 0%

Anonymous

0
0|0

65
0

13 фев 2014, 06:34

Anonymous Перейти к последнему сообщению

В этой теме нет новых непрочитанных сообщений. Скачать торрент Проверен Крепкий орешек 4.0 / Live Free or Die Hard (Лен Уайзман) [2007, США, Великобритания, боевик, триллер, криминал, BDRip SD (480p)] DUB (rus, ukr), MVO, AVO, Original + SUB (rus, ukr, eng)

в форуме Фильмы для iPod, iPhone, iPad, Размер: 2.46 ГБ, Здоровье: 100%

Гость

0
50|16

45
0

11 май 2015, 01:26

Гость Перейти к последнему сообщению

В этой теме нет новых непрочитанных сообщений. Скачать торрент Проверен [iPad] Советник / The Counselor (Ридли Скотт / Ridley Scott ) [2013, США, Великобритания, триллер, драма, криминал, HDRip, SD (576p)] DUB + Original + sub (rus, eng)

в форуме Фильмы для iPod, iPhone, iPad, Размер: 2.02 ГБ, Здоровье: 100%

Гость

0
46|15

51
1

18 май 2015, 10:31

Гость Перейти к последнему сообщению

В этой теме нет новых непрочитанных сообщений. Скачать торрент Проверен [iPad] Из пекла / Out of the Furnace (Скотт Купер / Scott Cooper ) [2013, США, Великобритания, триллер, драма, криминал, HDRip, SD (576p)] DVO + Original + sub (eng)

в форуме Фильмы для iPod, iPhone, iPad, Размер: 1.99 ГБ, Здоровье: 100%

Гость

0
21|7

65
0

18 май 2015, 10:54

Гость Перейти к последнему сообщению



Сейчас этот форум просматривают: нет зарегистрированных пользователей и гости: 3


Вы не можете начинать темы
Вы не можете отвечать на сообщения
Вы не можете редактировать свои сообщения
Вы не можете удалять свои сообщения
Вы не можете добавлять вложения

Перейти:  

!ВНИМАНИЕ!
 Ресурс не предоставляет электронные версии произведений, а занимается лишь коллекционированием и каталогизацией ссылок, присылаемых и публикуемых на форуме нашими читателями. Если вы являетесь правообладателем какого-либо представленного материала и не желаете чтобы ссылка на него находилась в нашем каталоге, свяжитесь с нами и мы незамедлительно удалим её. Файлы для обмена на трекере предоставлены пользователями сайта, и администрация не несёт ответственности за их содержание. Просьба не заливать файлы, защищенные авторскими правами, а также файлы нелегального содержания!