На всех торрентах на трекере установлена скидка на скачивание в размере 100 процентов(а).
 Возможность скачивания торрента НЕ зависит от ограничений при низком ратио, низком аплоаде, требуемом ратио или требуемом аплоаде.


Начать новую тему Ответить на тему
Статистика раздачи
Размер: 4.31 ГБ | Добавлен: 15 фев 2014, 17:33 | Скачали: 0
Сидеров: 0  [0 байт/сек]    Личеров: 0  [0 байт/сек]
Пред. тема | След. тема 

Автор
Сообщение

СообщениеДобавлено: 15 фев 2014, 17:33 

Название: Мистер и миссис Смит
Оригинальное название: Mr. & Mrs. Smith
Год выхода: 2005
Жанр: боевик, мелодрама, комедия
Режиссер: Даг Лайман

В ролях: Брэд Питт, Анджелина Джоли, Винс Вон, Адам Броди, Керри Вашингтон, Кит Дэвид, Крис Вайц, Рэйчел Хантли, Мишель Монахэн

О ФИЛЬМЕ
Джон и Джейн женаты не так долго, но уже утомлены своим браком. Им кажется, что они знают друг о друге все. Но есть кое-что, что каждый предпочитает держать при себе: оба они — наемные убийцы, которые тайно путешествуют по миру, выполняя опасные миссии. Эти отдельные тайные приключения становятся их общей судьбой в тот момент, когда Джейн получает заказ на Джона, а Джон на Джейн.



Страна: США
Производство: New Regency Pictures, Summit Entertainment, Weed Road Pictures
Продолжительность: 02:05:33
Перевод 1: Профессиональный (многоголосый) [Киномания]
Перевод 2: Профессиональный (двухголосый) [Tycoon Studio]
Перевод 3: Авторский (одноголосый) [Андрей Гаврилов]
Перевод 4: Авторский (одноголосый) [Владимир Королев]


Качество: BDRip 720p
Формат: MKV
Видео: AVC, 1280x546 (2.35:1) at 23.976 fps, AVC at 3190 kbps avg, 0.190 bit/pixel
Аудио 1: Русский / AC3 / 6ch / 448 kbps | Киномания
Аудио 2: Русский / AC3 / 6ch / 448 kbps | Tycoon Studio
Аудио 3: Русский / AC3 / 6ch / 448 kbps | А. Гаврилов
Аудио 4: Русский / AC3 / 6ch / 384 kbps | В. Королев
Субтитры: Русские, Английские
Навигация: Есть






General
Unique ID : 212821005403521350629381470147137481647 (0xA01BD5AF900C00E8B4420267ACFFABAF)
Complete name : H:Mr.Mrs.Smith.2005.BD.720.Hot-Film.mkv
Format : Matroska
Format version : Version 2
File size : 4.31 GiB
Duration : 2h 5mn
Overall bit rate : 4 918 Kbps
Encoded date : UTC 2014-02-15 11:17:44
Writing application : mkvmerge v5.8.0 ('No Sleep / Pillow') built on Sep 2 2012 15:37:04
Writing library : libebml v1.2.3 + libmatroska v1.3.0

Video
ID : 1
Format : AVC
Format/Info : Advanced Video Codec
Format profile : High@L4.1
Format settings, CABAC : Yes
Format settings, ReFrames : 11 frames
Codec ID : V_MPEG4/ISO/AVC
Duration : 2h 5mn
Bit rate : 3 190 Kbps
Width : 1 280 pixels
Height : 546 pixels
Display aspect ratio : 2.35:1
Frame rate mode : Constant
Frame rate : 23.976 fps
Color space : YUV
Chroma subsampling : 4:2:0
Bit depth : 8 bits
Scan type : Progressive
Bits/(Pixel*Frame) : 0.190
Stream size : 2.71 GiB (63%)
Writing library : x264 core 138 r2358 9e941d1
Encoding settings : cabac=1 / ref=11 / deblock=1:-3:-3 / analyse=0x3:0x133 / me=umh / subme=11 / psy=1 / psy_rd=1.05:0.10 / mixed_ref=1 / me_range=32 / chroma_me=1 / trellis=2 / 8x8dct=1 / cqm=0 / deadzone=21,11 / fast_pskip=0 / chroma_qp_offset=-3 / threads=2 / lookahead_threads=1 / sliced_threads=0 / nr=0 / decimate=0 / interlaced=0 / bluray_compat=0 / constrained_intra=0 / bframes=8 / b_pyramid=2 / b_adapt=2 / b_bias=0 / direct=3 / weightb=1 / open_gop=0 / weightp=2 / keyint=240 / keyint_min=23 / scenecut=40 / intra_refresh=0 / rc_lookahead=40 / rc=2pass / mbtree=0 / bitrate=3190 / ratetol=1.0 / qcomp=0.60 / qpmin=0 / qpmax=69 / qpstep=4 / cplxblur=20.0 / qblur=0.5 / vbv_maxrate=50000 / vbv_bufsize=62500 / nal_hrd=none / ip_ratio=1.40 / pb_ratio=1.30 / aq=1:1.00
Language : English
Default : Yes
Forced : No

Audio #1
ID : 2
Format : AC-3
Format/Info : Audio Coding 3
Mode extension : CM (complete main)
Format settings, Endianness : Big
Codec ID : A_AC3
Duration : 2h 5mn
Bit rate mode : Constant
Bit rate : 448 Kbps
Channel(s) : 6 channels
Channel positions : Front: L C R, Side: L R, LFE
Sampling rate : 48.0 KHz
Bit depth : 16 bits
Compression mode : Lossy
Stream size : 402 MiB (9%)
Title : Киномания
Language : Russian
Default : Yes
Forced : No

Audio #2
ID : 3
Format : AC-3
Format/Info : Audio Coding 3
Mode extension : CM (complete main)
Format settings, Endianness : Big
Codec ID : A_AC3
Duration : 2h 5mn
Bit rate mode : Constant
Bit rate : 448 Kbps
Channel(s) : 6 channels
Channel positions : Front: L C R, Side: L R, LFE
Sampling rate : 48.0 KHz
Bit depth : 16 bits
Compression mode : Lossy
Stream size : 402 MiB (9%)
Title : Tycoon Studio
Language : Russian
Default : No
Forced : No

Audio #3
ID : 4
Format : AC-3
Format/Info : Audio Coding 3
Mode extension : CM (complete main)
Format settings, Endianness : Big
Codec ID : A_AC3
Duration : 2h 5mn
Bit rate mode : Constant
Bit rate : 448 Kbps
Channel(s) : 6 channels
Channel positions : Front: L C R, Side: L R, LFE
Sampling rate : 48.0 KHz
Bit depth : 16 bits
Compression mode : Lossy
Stream size : 402 MiB (9%)
Title : А.Гаврилов
Language : Russian
Default : No
Forced : No

Audio #4
ID : 5
Format : AC-3
Format/Info : Audio Coding 3
Mode extension : CM (complete main)
Format settings, Endianness : Big
Codec ID : A_AC3
Duration : 2h 5mn
Bit rate mode : Constant
Bit rate : 384 Kbps
Channel(s) : 6 channels
Channel positions : Front: L C R, Side: L R, LFE
Sampling rate : 48.0 KHz
Bit depth : 16 bits
Compression mode : Lossy
Stream size : 345 MiB (8%)
Title : В.Королев
Language : Russian
Default : No
Forced : No

Text #1
ID : 6
Format : UTF-8
Codec ID : S_TEXT/UTF8
Codec ID/Info : UTF-8 Plain Text
Language : Russian
Default : No
Forced : No

Text #2
ID : 7
Format : UTF-8
Codec ID : S_TEXT/UTF8
Codec ID/Info : UTF-8 Plain Text
Language : English
Default : No
Forced : No

Menu
00:00:00.000 : :Chapter 01
00:10:07.774 : :Chapter 02
00:19:43.182 : :Chapter 03
00:28:37.382 : :Chapter 04
00:39:39.669 : :Chapter 05
00:50:11.133 : :Chapter 06
01:01:19.634 : :Chapter 07
01:12:23.548 : :Chapter 08
01:23:01.059 : :Chapter 09
01:34:05.265 : :Chapter 10
01:45:33.661 : :Chapter 11
01:56:58.053 : :Chapter 12

Релиз от:
загрузка...
Правила, инструкции, FAQ!!!
Торрент  Добавлен [15 фев 2014, 17:33] Скачать торрент
Скачать торрент
[ Размер 22.14 КБ / Просмотров 8 ]

Статус  
 
Размер  4.31 ГБ
Приватный: Нет (DHT включён)
.torrent скачан  0
Как залить торрент? | Как скачать Torrent? | Как смотреть и слушать онлайн?  


     Отправить личное сообщение
   
Страница 1 из 1
Показать сообщения за:  Поле сортировки  
Начать новую тему Ответить на тему

   Похожие торренты   Автор   Ответы   Просмотры   Последнее сообщение 
В этой теме нет новых непрочитанных сообщений. Скачать торрент Проверен Бобби Смит / Bobbi Smith - Сборник любовных романов [1982-2005; fb2, rtf]

в форуме Женский роман, Размер: 15.01 МБ, Здоровье: 100%

Anonymous

0
2|1

6
0

28 авг 2016, 20:38

Anonymous Перейти к последнему сообщению

В этой теме нет новых непрочитанных сообщений. Скачать торрент Проверен Patti Smith - Live at Montreux [2005, Alternative Rock, Punk, BDRip 720p]

в форуме Концерты (HD-Video), Размер: 5.32 ГБ, Здоровье: 100%

Anonymous

0
3|1

1
0

23 окт 2016, 14:31

Anonymous Перейти к последнему сообщению

В этой теме нет новых непрочитанных сообщений. Скачать торрент Проверен Patti Smith - Live At Montreux 2005 [2012, Alternative Rock, Punk, BDRip 720p]

в форуме Концерты (HD-Video), Размер: 3.28 ГБ, Здоровье: 100%

Anonymous

0
5|1

34
0

01 май 2015, 19:58

Anonymous Перейти к последнему сообщению

В этой теме нет новых непрочитанных сообщений. Скачать торрент Двойной КОПец / Cop Out (Кевин Смит / Kevin Smith) [2010, США, боевик, комедия, криминал, BDRip] (перевод Гоблина)

в форуме Боевики, Размер: 1.37 ГБ, Здоровье: 100%

Anonymous

0
48|16

50
0

17 май 2014, 20:08

Anonymous Перейти к последнему сообщению

В этой теме нет новых непрочитанных сообщений. Скачать торрент Черная смерть / Black Death (Кристофер Смит / Christopher Smith) [2010, Германия, драма, детектив, BDRip-AVC]

в форуме Драмы, Мелодрамы, Размер: 1.54 ГБ, Здоровье: 0%

Anonymous

0
0|0

41
0

03 апр 2014, 12:45

Anonymous Перейти к последнему сообщению



Сейчас этот форум просматривают: нет зарегистрированных пользователей и гости: 1


Вы не можете начинать темы
Вы не можете отвечать на сообщения
Вы не можете редактировать свои сообщения
Вы не можете удалять свои сообщения
Вы не можете добавлять вложения

Перейти:  

!ВНИМАНИЕ!
 Ресурс не предоставляет электронные версии произведений, а занимается лишь коллекционированием и каталогизацией ссылок, присылаемых и публикуемых на форуме нашими читателями. Если вы являетесь правообладателем какого-либо представленного материала и не желаете чтобы ссылка на него находилась в нашем каталоге, свяжитесь с нами и мы незамедлительно удалим её. Файлы для обмена на трекере предоставлены пользователями сайта, и администрация не несёт ответственности за их содержание. Просьба не заливать файлы, защищенные авторскими правами, а также файлы нелегального содержания!