На всех торрентах на трекере установлена скидка на скачивание в размере 100 процентов(а).
 Возможность скачивания торрента НЕ зависит от ограничений при низком ратио, низком аплоаде, требуемом ратио или требуемом аплоаде.


Начать новую тему Ответить на тему
Статистика раздачи
Размер: 8.87 ГБ | Добавлен: 14 фев 2014, 18:13 | Скачали: 0
Сидеров: 0  [0 байт/сек]    Личеров: 0  [0 байт/сек]
Пред. тема | След. тема 

Автор
Сообщение

СообщениеДобавлено: 14 фев 2014, 18:13 

Название: Час рыси
Оригинальное название: I Lossens Time / The Hour of the Lynx
Год выпуска: 2013
Жанр: драма
Режиссер: Сёрен Краг-Якобсен

В ролях: Софи Гробёль, Сёрен Маллинг, Синье Эгхольм Олсен, Лиа Бойсен, Бёрье Альстедт, Фредерик Кристиан Йохансен, Йенс Йорн Споттаг, Дональд Хёгберг, Джули Карлсен, Нис Банк-Миккельсен, Сусан Ольсен, Барбро Энберг, Хенрик Бирк, Расмус Элтон, Якоб Ульрик Ломанн, Мэдс Ромер

О фильме:
Сорокалетняя пастор Елена обращается за помощью к научному сотруднику Лисбет, занимающейся психологическими исследованиями. Проблема, с которой столкнулась Елена заключается в том, что во время экспериментального лечения заключенных в закрытой психиатрической клинике, один из пациентов вдруг начал видеть галлюцинации о Боге, а после покончил жизнь самоубийством. Несмотря на различные убеждения и взаимную неприязнь, женщины пытаются вместе докопаться до истины.



Выпущено: Дания, Швеция
Продолжительность: 01:29:02
Озвучивание: Любительское (одноголосое) [datynet]


Формат: MKV
Качество: BDRip 1080p [CONDITION]
Видео: 12612 kb/s, 1920x808
Аудио: Russian: AC3, 192 kb/s (2 ch) / Danish: DTS, 1510 kb/s (6 ch)
Субтитры: Russian [Mannenr], English
Дополнительно: Сохранены оригинальные чаптеры как на Blu-Ray
Размер: 8.87 GB
Скачать: Сэмпл

Релиз группы:



Общее
I.Lossens.Time.2013.Blu.Ray.1080p.CINEMANIA.mkv
Формат : Matroska
Версия формата : Version 4 / Version 2
Размер файла : 8,87 Гбайт
Продолжительность : 1 ч. 29 м.
Общий поток : 14,3 Мбит/сек
Название фильма : Release Group CINEMANIA
Дата кодирования : UTC 2014-02-13 19:28:37
Программа кодирования : mkvmerge v6.7.0 ('Back to the Ground') 64bit built on Jan 8 2014 15:10:52
Библиотека кодирования : libebml v1.3.0 + libmatroska v1.4.1

Видео
Идентификатор : 1
Формат : AVC
Формат/Информация : Advanced Video Codec
Профиль формата : High@L4.1
Параметр CABAC формата : Да
Параметр ReFrames формата : 5 кадров
Идентификатор кодека : V_MPEG4/ISO/AVC
Продолжительность : 1 ч. 29 м.
Битрейт : 12,6 Мбит/сек
Ширина : 1920 пикселей
Высота : 808 пикселей
Соотношение сторон : 2,40:1
Режим частоты кадров : Постоянный
Частота кадров : 25,000 кадров/сек
Цветовое пространство : YUV
Субдискретизация насыщенности : 4:2:0
Битовая глубина : 8 бит
Тип развёртки : Прогрессивная
Бит/(Пиксели*Кадры) : 0.324
Размер потока : 7,63 Гбайт (86%)
Заголовок : Release Group CINEMANIA
Библиотека кодирования : x264 core 138 r2358 9e941d1
Настройки программы : cabac=1 / ref=5 / deblock=1:0:0 / analyse=0x3:0x133 / me=umh / subme=7 / psy=1 / psy_rd=1.00:0.00 / mixed_ref=1 / me_range=16 / chroma_me=1 / trellis=1 / 8x8dct=1 / cqm=0 / deadzone=21,11 / fast_pskip=0 / chroma_qp_offset=-2 / threads=8 / lookahead_threads=1 / sliced_threads=0 / nr=0 / decimate=1 / interlaced=0 / bluray_compat=0 / constrained_intra=0 / bframes=3 / b_pyramid=2 / b_adapt=1 / b_bias=0 / direct=1 / weightb=1 / open_gop=0 / weightp=2 / keyint=250 / keyint_min=25 / scenecut=40 / intra_refresh=0 / rc_lookahead=40 / rc=2pass / mbtree=1 / bitrate=12555 / ratetol=1.0 / qcomp=0.60 / qpmin=0 / qpmax=69 / qpstep=4 / cplxblur=20.0 / qblur=0.5 / ip_ratio=1.40 / aq=1:1.00
Язык : Danish
Default : Да
Forced : Нет

Аудио #1
Идентификатор : 2
Формат : AC-3
Формат/Информация : Audio Coding 3
Расширение режима : CM (complete main)
Параметр Endianness формата : Big
Идентификатор кодека : A_AC3
Продолжительность : 1 ч. 29 м.
Вид битрейта : Постоянный
Битрейт : 192 Кбит/сек
Каналы : 2 канала
Расположение каналов : Front: L R
Частота : 44,1 КГц
Битовая глубина : 16 бит
Метод сжатия : С потерями
Размер потока : 122 Мбайт (1%)
Заголовок : datynet
Язык : Russian
Default : Да
Forced : Да

Аудио #2
Идентификатор : 3
Формат : DTS
Формат/Информация : Digital Theater Systems
Режим : 16
Параметр Endianness формата : Big
Идентификатор кодека : A_DTS
Продолжительность : 1 ч. 29 м.
Вид битрейта : Постоянный
Битрейт : 1509 Кбит/сек
Каналы : 6 каналов
Расположение каналов : Front: L C R, Side: L R, LFE
Частота : 48,0 КГц
Битовая глубина : 24 бит
Метод сжатия : С потерями
Размер потока : 961 Мбайт (11%)
Язык : Danish
Default : Нет
Forced : Нет

Текст #1
Идентификатор : 4
Формат : UTF-8
Идентификатор кодека : S_TEXT/UTF8
Идентификатор кодека/Информация : UTF-8 Plain Text
Заголовок : Mannenr
Язык : Russian
Default : Нет
Forced : Нет

Текст #2
Идентификатор : 5
Формат : UTF-8
Идентификатор кодека : S_TEXT/UTF8
Идентификатор кодека/Информация : UTF-8 Plain Text
Язык : English
Default : Нет
Forced : Нет

Меню
00:00:00.000 : en:00:00:00.000
00:08:09.400 : en:00:08:09.400
00:16:20.920 : en:00:16:20.920
00:21:39.560 : en:00:21:39.560
00:30:00.440 : en:00:30:00.440
00:37:09.760 : en:00:37:09.760
00:45:25.000 : en:00:45:25.000
00:52:39.200 : en:00:52:39.200
01:00:34.120 : en:01:00:34.120
01:06:00.720 : en:01:06:00.720
01:13:21.680 : en:01:13:21.680
01:25:00.000 : en:01:25:00.000
загрузка...
Правила, инструкции, FAQ!!!
Торрент  Добавлен [14 фев 2014, 18:13] Скачать торрент
Скачать торрент
[ Размер 44.92 КБ / Просмотров 8 ]

Статус  
 
Размер  8.87 ГБ
Приватный: Нет (DHT включён)
.torrent скачан  0
Как залить торрент? | Как скачать Torrent? | Как смотреть и слушать онлайн?  


     Отправить личное сообщение
   
Страница 1 из 1
Показать сообщения за:  Поле сортировки  
Начать новую тему Ответить на тему

   Похожие торренты   Автор   Ответы   Просмотры   Последнее сообщение 
В этой теме нет новых непрочитанных сообщений. Скачать торрент Час рыси / I Lossens Time / The Hour of the Lynx (2013) BDRip 720p | L2

в форуме 720p | 1080p, Размер: 4.49 ГБ, Здоровье: 0%

Anonymous

0
0|0

1030
0

14 фев 2014, 18:10

Anonymous Перейти к последнему сообщению

В этой теме нет новых непрочитанных сообщений. Скачать торрент Час рыси / I Lossens Time (2013) BDRip

в форуме Драмы, Мелодрамы, Размер: 1.3 ГБ, Здоровье: 0%

Anonymous

0
0|0

486
0

14 янв 2014, 21:25

Anonymous Перейти к последнему сообщению

В этой теме нет новых непрочитанных сообщений. Скачать торрент Мои африканские приключения / Min sosters born i Afrika (2013) BDRip 720p от CINEMANIA | НТВ+

в форуме 720p | 1080p, Размер: 4.01 ГБ, Здоровье: 100%

Anonymous

0
12|0

55
148

25 мар 2014, 07:28

Anonymous Перейти к последнему сообщению

В этой теме нет новых непрочитанных сообщений. Скачать торрент Проверен (Melodic Rock) Lynx - Lynx - 1993, MP3 (tracks), 320 kbps

в форуме AOR (Melodic Hard Rock, Arena rock), Размер: 131.61 МБ, Здоровье: 100%

Anonymous

0
2|1

0
0

08 окт 2016, 11:15

Anonymous Перейти к последнему сообщению

В этой теме нет новых непрочитанных сообщений. Скачать торрент Бойфренд из будущего / About Time (2013) BDRip 1080p | Лицензия

в форуме 720p | 1080p, Размер: 10.71 ГБ, Здоровье: 0%

Anonymous

0
0|0

1081
0

02 янв 2014, 11:46

Anonymous Перейти к последнему сообщению



Сейчас этот форум просматривают: нет зарегистрированных пользователей и гости: 1


Вы не можете начинать темы
Вы не можете отвечать на сообщения
Вы не можете редактировать свои сообщения
Вы не можете удалять свои сообщения
Вы не можете добавлять вложения

Перейти:  

!ВНИМАНИЕ!
 Ресурс не предоставляет электронные версии произведений, а занимается лишь коллекционированием и каталогизацией ссылок, присылаемых и публикуемых на форуме нашими читателями. Если вы являетесь правообладателем какого-либо представленного материала и не желаете чтобы ссылка на него находилась в нашем каталоге, свяжитесь с нами и мы незамедлительно удалим её. Файлы для обмена на трекере предоставлены пользователями сайта, и администрация не несёт ответственности за их содержание. Просьба не заливать файлы, защищенные авторскими правами, а также файлы нелегального содержания!