На всех торрентах на трекере установлена скидка на скачивание в размере 100 процентов(а).
 Возможность скачивания торрента НЕ зависит от ограничений при низком ратио, низком аплоаде, требуемом ратио или требуемом аплоаде.


Начать новую тему Ответить на тему
Статистика раздачи
Размер: 2.18 ГБ | Добавлен: 14 фев 2014, 07:47 | Скачали: 0
Сидеров: 0  [0 байт/сек]    Личеров: 0  [0 байт/сек]
Пред. тема | След. тема 

Автор
Сообщение

СообщениеДобавлено: 14 фев 2014, 07:47 

Страна: США
Жанр: Комедия, драма
Год выпуска: 2009
Продолжительность: 01:42:27
Перевод #1: Профессиональный полное дублирование
Оригинальная аудиодорожка: Английский
Cубтитры: английские

Режиссер: Дон Рус / Don Roos

В ролях: Натали Портман / Natalie Portman, Лиза Кудроу / Lisa Kudrow, Лорен Эмброуз / Lauren Ambrose, Энтони Рэпп / Anthony Rapp, Майкл Кристофер / Michael Cristofer, Скотт Коэн / Scott Cohen, Чарли Тахэн / Charlie Tahan, Дэйзи Тахэн / Daisy Tahan, Дебра Монк / Debra Monk, Элизабет Марвел / Elizabeth Marvel
Описание:
Молодой адвокат, умница и красавица Эмили Гринлиф не знала, что роман с женатым красавцем Джеком Вулфом приведет к таким результатам… Теперь ее собственная семейная жизнь полна проблем. Эмили скрывает роковую тайну, разрываясь между прошлым и заботой о пасынке, мальчике самостоятельном, с непростым характером. Именно общение с ним заставляет ее начать жить заново в этом реальном мире — сложном и удивительном.
Сборы в США: $22 597
Сборы в мире: + $426 768 = $449 365
Сборы в России: $366 766


Сэмпл #1 (multi-up.com) | Сэмпл #2 (Narod.ru) |

Качество: BDRip-AVC (Исходник BDRemux)
Формат: Mkv
Видео кодек: H.264
Аудио кодек: AC3
Видео: 1120x476, (2,35:1), 23.976 fps, ~ 2215 Кбит/сек
Аудио #1: 48 kHz, AC3 Dolby Digital, 3/2 (L,C,R,l,r) + LFE ch, ~384kbps | Профессиональный полное дублирование |
Аудио #2: 48 kHz, AC3 Dolby Digital, 3/2 (L,C,R,l,r) + LFE ch, ~448kbps | Оригинальная английская дорожка |




Формат субтитров: softsub (SRT) | английские
MediaInfo/x264
MediaInfo
Код:
Код:
Уникальный идентификатор         : 181775874326183701586898482670906132316 (0x88C0C28C4AEECF9F9F793A0C623C475C)
Полное имя                       : Love and Other Impossible Pursuits 2009 x264 BDRip-AVC Gambit.mkv
Формат                           : Matroska
Размер файла                     : 2,18 Гбайт
Продолжительность                : 1 ч. 42 м.
Общий поток                      : 3046 Кбит/сек
Дата кодирования                 : UTC 2011-06-15 03:41:07
Программа кодирования            : mkvmerge v4.5.0 ('Speed of Light') сборка от Feb 15 2011 12:50:20
Библиотека кодирования           : libebml v1.2.0 + libmatroska v1.1.0

Видео
Идентификатор                    : 1
Формат                           : AVC
Формат/Информация                : Advanced Video Codec
Профиль формата                  : High@L4.0
Параметр CABAC формата           : Да
Параметр ReFrames формата        : 11 кадры
Идентификатор кодека             : V_MPEG4/ISO/AVC
Продолжительность                : 1 ч. 42 м.
Битрейт                          : 2215 Кбит/сек
Ширина                           : 1120 пикс.
Высота                           : 476 пикс.
Соотношение сторон               : 2,35:1
Частота кадров                   : 23,976 кадр/сек
Цветовое пространство            : YUV
Подвыборка цветности             : 4:2:0
Битовая глубина                  : 8 бит
Тип развёртки                    : Прогрессивная
Бит/(Пиксели*Кадры)              : 0.173
Размер потока                    : 1,54 Гбайт (71%)
Заголовок                        : Love and Other Impossible Pursuits Gambit
Библиотека кодирования           : x264 core 114 r1913 5fd3dce
Настройки программы              : cabac=1 / ref=11 / deblock=1:-2:-1 / analyse=0x3:0x133 / me=umh / subme=10 / psy=1 / psy_rd=1.15:0.05 / mixed_ref=1 / me_range=32 / chroma_me=1 / trellis=2 / 8x8dct=1 / cqm=0 / deadzone=21,11 / fast_pskip=0 / chroma_qp_offset=-6 / threads=6 / sliced_threads=0 / nr=0 / decimate=1 / interlaced=0 / constrained_intra=0 / bframes=8 / b_pyramid=2 / b_adapt=2 / b_bias=0 / direct=3 / weightb=1 / open_gop=0 / weightp=2 / keyint=250 / keyint_min=23 / scenecut=40 / intra_refresh=0 / rc=2pass / mbtree=0 / bitrate=2215 / ratetol=1.0 / qcomp=0.60 / qpmin=0 / qpmax=69 / qpstep=4 / cplxblur=20.0 / qblur=0.5 / ip_ratio=1.30 / pb_ratio=1.25 / aq=2:0.90 / zones=141175,147381,q=30
Язык                             : English

Аудио #1
Идентификатор                    : 2
Формат                           : AC-3
Формат/Информация                : Audio Coding 3
Расширение режима                : CM (complete main)
Идентификатор кодека             : A_AC3
Продолжительность                : 1 ч. 42 м.
Вид битрейта                     : Постоянный
Битрейт                          : 384 Кбит/сек
Канал(ы)                         : 6 канала(ов)
Расположение каналов             : Front: L C R, Side: L R, LFE
Частота                          : 48,0 КГц
Битовая глубина                  : 16 бит
Метод сжатия                     : С потерями
Размер потока                    : 282 Мбайт (13%)
Заголовок                        : Dub
Язык                             : Russian

Аудио #2
Идентификатор                    : 3
Формат                           : AC-3
Формат/Информация                : Audio Coding 3
Расширение режима                : CM (complete main)
Идентификатор кодека             : A_AC3
Продолжительность                : 1 ч. 42 м.
Вид битрейта                     : Постоянный
Битрейт                          : 448 Кбит/сек
Канал(ы)                         : 6 канала(ов)
Расположение каналов             : Front: L C R, Side: L R, LFE
Частота                          : 48,0 КГц
Битовая глубина                  : 16 бит
Метод сжатия                     : С потерями
Размер потока                    : 329 Мбайт (15%)
Заголовок                        : Original (Eng)
Язык                             : English

Текст
Идентификатор                    : 4
Формат                           : UTF-8
Идентификатор кодека             : S_TEXT/UTF8
Идентификатор кодека/Информация  : UTF-8 Plain Text
Заголовок                        : Eng
Язык                             : English

x264
Код:
Код:
...last pass...

x264_64.exe: --pass 2 --bitrate 2215 --preset medium --ref 11 --aq-mode 2 --aq-strength 0.9 --deblock -2:-1 --merange 32 --bframes 8 --direct auto --b-adapt 2 --trellis 2 --no-fast-pskip --psy-rd 1.15:0.05 --chroma-qp-offset -3 --partitions all --subme 10 --me umh --slow-firstpass --no-mbtree --ipratio 1.30 --pbratio 1.25 --zones=141175,147381,q=30 --stats "E:\Love and Other Impossible Pursuits.log" --sar 1:1 --output "E:\Love and Other Impossible Pursuits.mkv" "C:\Temp\0022.avs"

raw [info]: 1120x476p 1:1 @ 2500000/104271 fps (cfr)
x264 [info]: using SAR=1/1
x264 [info]: using cpu capabilities: MMX2 SSE2Fast SSSE3 FastShuffle SSE4.2 AVX
x264 [info]: profile High, level 4.0

x264 [info]: frame I:1159  Avg QP:17.80  size: 69342
x264 [info]: frame P:27299 Avg QP:20.35  size: 23568
x264 [info]: frame B:118923 Avg QP:21.62  size:  8220
x264 [info]: consecutive B-frames:  1.4%  0.6%  3.0% 12.6% 15.7% 45.5% 11.0%  5.3%  4.9%
x264 [info]: mb I  I16..4:  5.1% 83.5% 11.3%
x264 [info]: mb P  I16..4:  0.7%  5.9%  0.9%  P16..4: 52.7% 26.3%  6.7%  0.3%  0.3%    skip: 6.2%
x264 [info]: mb B  I16..4:  0.0%  0.3%  0.1%  B16..8: 45.8% 11.2%  3.1%  direct: 7.1%  skip:32.6%  L0:45.8% L1:44.3% BI: 9.9%
x264 [info]: 8x8 transform intra:80.0% inter:69.4%
x264 [info]: direct mvs  spatial:99.4% temporal:0.6%
x264 [info]: coded y,uvDC,uvAC intra: 90.1% 93.2% 85.4% inter: 22.0% 40.7% 18.2%
x264 [info]: i16 v,h,dc,p: 41% 16% 10% 34%
x264 [info]: i8 v,h,dc,ddl,ddr,vr,hd,vl,hu: 13%  7%  5% 10% 14% 15% 12% 13% 11%
x264 [info]: i4 v,h,dc,ddl,ddr,vr,hd,vl,hu: 12%  7%  2%  9% 16% 17% 13% 12% 11%
x264 [info]: i8c dc,h,v,p: 54% 14% 18% 14%
x264 [info]: Weighted P-Frames: Y:5.2% UV:2.3%
x264 [info]: ref P L0: 44.1%  9.2% 16.7%  8.1%  6.0%  4.8%  3.9%  2.4%  1.9%  1.6%  1.3%  0.1%  0.0%
x264 [info]: ref B L0: 65.1% 14.8%  7.3%  4.0%  2.9%  2.3%  1.8%  1.0%  0.5%  0.2%
x264 [info]: ref B L1: 90.9%  9.1%
x264 [info]: kb/s:2214.21

x264 [total]: encoded 147381 frames, 8.23 fps, 2214.21 kb/s






загрузка...
Правила, инструкции, FAQ!!!
Торрент  Добавлен [14 фев 2014, 07:47] Скачать торрент
Скачать торрент
[ Размер 11.44 КБ / Просмотров 14 ]

Статус  
 
Размер  2.18 ГБ
Приватный: Нет (DHT включён)
.torrent скачан  0
Как залить торрент? | Как скачать Torrent? | Как смотреть и слушать онлайн?  


     Отправить личное сообщение
   
Страница 1 из 1
Показать сообщения за:  Поле сортировки  
Начать новую тему Ответить на тему

   Похожие торренты   Автор   Ответы   Просмотры   Последнее сообщение 
В этой теме нет новых непрочитанных сообщений. Скачать торрент Реальная любовь / Love Actually (Ричард Кёртис / Richard Curtis) [2003, Великобритания, США, Романтическая комедия, Драма, BDRip] AVO (Сербин, Гаврилов) + original eng

в форуме Комедии, Размер: 2.01 ГБ, Здоровье: 0%

Anonymous

0
0|0

89
0

22 апр 2014, 11:50

Anonymous Перейти к последнему сообщению

В этой теме нет новых непрочитанных сообщений. Скачать торрент Любовь за стеной / Любимая берлинская стена / Liebe Mauer (Питер Тимм / Peter Timm) [2009, Германия, комедия, BDRip] MVO (1 канал) + Original Ger

в форуме Комедии, Размер: 1.37 ГБ, Здоровье: 100%

Anonymous

0
12|4

46
0

17 фев 2014, 11:45

Anonymous Перейти к последнему сообщению

В этой теме нет новых непрочитанных сообщений. Скачать торрент Предложение / The Proposal (Энн Флетчер / Anne Fletcher) [2009 г., Романтическая комедия, мелодрама, драма, BDRip] Dub + Original (eng) + sub (rus, eng, ukr)

в форуме Комедии, Размер: 2.18 ГБ, Здоровье: 100%

Anonymous

0
97|11

35
1

05 фев 2014, 21:13

Anonymous Перейти к последнему сообщению

В этой теме нет новых непрочитанных сообщений. Скачать торрент Как заняться любовью с женщиной / How to Make Love to a Woman (Скотт Калвер / Scott Culver) [2010, США, комедия, HDRip] MVO [Лицензия] + original ( eng ) + Subs ( rus, eng )

в форуме Комедии, Размер: 1.74 ГБ, Здоровье: 0%

Anonymous

0
0|0

46
0

12 фев 2014, 08:18

Anonymous Перейти к последнему сообщению

В этой теме нет новых непрочитанных сообщений. Скачать торрент Любовь в холодном климате / Love in a cold climate (Том Хупер / Tom Hooper) [2001, Великобритания, Драма, экранизация, DVDRip] Sub Rus + Original Eng

в форуме Драмы, Мелодрамы, Размер: 1.87 ГБ, Здоровье: 100%

Anonymous

0
28|10

303
3

03 фев 2014, 12:30

Anonymous Перейти к последнему сообщению



Сейчас этот форум просматривают: нет зарегистрированных пользователей и гости: 1


Вы не можете начинать темы
Вы не можете отвечать на сообщения
Вы не можете редактировать свои сообщения
Вы не можете удалять свои сообщения
Вы не можете добавлять вложения

Перейти:  

!ВНИМАНИЕ!
 Ресурс не предоставляет электронные версии произведений, а занимается лишь коллекционированием и каталогизацией ссылок, присылаемых и публикуемых на форуме нашими читателями. Если вы являетесь правообладателем какого-либо представленного материала и не желаете чтобы ссылка на него находилась в нашем каталоге, свяжитесь с нами и мы незамедлительно удалим её. Файлы для обмена на трекере предоставлены пользователями сайта, и администрация не несёт ответственности за их содержание. Просьба не заливать файлы, защищенные авторскими правами, а также файлы нелегального содержания!