На всех торрентах на трекере установлена скидка на скачивание в размере 100 процентов(а).
 Возможность скачивания торрента НЕ зависит от ограничений при низком ратио, низком аплоаде, требуемом ратио или требуемом аплоаде.


Начать новую тему Ответить на тему
Статистика раздачи
Размер: 2.91 ГБ | Добавлен: 14 фев 2014, 07:44 | Скачали: 0
Сидеров: 0  [0 байт/сек]    Личеров: 0  [0 байт/сек]
Пред. тема | След. тема 

Автор
Сообщение

СообщениеДобавлено: 14 фев 2014, 07:44 

Путь домой / The Way Back
«Their escape was just the beginning»


Страна: США, ОАЭ
Жанр: драма, приключения
Год выпуска: 2010
Продолжительность: 02:13:11
Перевод: Профессиональный (многоголосый) | Лицензия R5
Cубтитры: Русские, английские (полные + вшитые на русскую речь)
Оригинальная аудиодорожка: Английский
Режиссер: Питер Уир / Peter Weir
В ролях: Колин Фаррелл / Colin Farrell, Марк Стронг / Mark Strong, Сирша Ронан / Saoirse Ronan, Джим Стёрджесс / Jim Sturgess, Эд Харрис / Ed Harris, Густаф Скарсгард / Gustaf Skarsgård, Александру Поточан / Alexandru Potocean, Себастьян Урзендовский / Sebastian Urzendowsky, Драгош Букур / Dragos Bucur, Захари Бахаров / Zahary Baharov
Описание:
1940 год, Сибирь. Самый страшный лагерь для политзаключенных. Небольшая группа осужденных смогла вырваться из этого страшного места. Теперь их ждет путь домой. Долгий, очень трудный, минуя пустыни и горы, сталкиваясь с дикими животными и незнакомыми людьми. Они идут домой из последних сил, надеясь на встречу со своими близкими.




Качество видео: BDRip-AVC | исх. The Way Back 2010 BluRay 1080p AVC DTS-HD MA5.1-HDChina
Формат видео: MKV
Видео: H.264 / 1024 x 436 / 2.35:1 / 2232 kbps / 23,976 fps
Аудио 1: Русский / AC3 Dolby Digital / 48 KHz / 448 kbps / 3/2 (L,C,R,l,r) + LFE ch
Аудио 2: Английский / AC3 Dolby Digital / 48 KHz / 448 kbps / 3/2 (L,C,R,l,r) + LFE ch
Формат субтитров: softsub (SRT)
СЭМПЛ
Релиз:
MediaInfo/log
log
Код:
Код:
raw [info]: 1024x436p 1:1 @ 24000/1001 fps (cfr)
x264 [info]: using SAR=1/1
x264 [info]: using cpu capabilities: MMX2 SSE2Fast SSSE3 FastShuffle SSE4.2 AVX
x264 [info]: profile High, level 4.1

x264 [info]: frame I:1235  Avg QP:18.52  size: 62309
x264 [info]: frame P:40408 Avg QP:21.59  size: 19164
x264 [info]: frame B:149971 Avg QP:22.02  size:  9189
x264 [info]: consecutive B-frames:  1.5%  2.1%  9.3% 17.4% 17.4% 42.0%  5.1%  1.4%  1.3%  0.7%  0.5%  0.7%  0.4%  0.3%
x264 [info]: mb I  I16..4:  7.5% 75.6% 16.9%
x264 [info]: mb P  I16..4:  1.1%  7.8%  1.8%  P16..4: 38.7% 24.2% 14.3%  0.0%  0.0%    skip:12.1%
x264 [info]: mb B  I16..4:  0.1%  1.0%  0.3%  B16..8: 37.6% 11.7%  3.6%  direct: 7.4%  skip:38.3%  L0:42.9% L1:43.4% BI:13.7%
x264 [info]: 8x8 transform intra:72.9% inter:60.1%
x264 [info]: direct mvs  spatial:97.1% temporal:2.9%
x264 [info]: coded y,uvDC,uvAC intra: 80.6% 69.2% 36.3% inter: 29.9% 15.9% 1.5%
x264 [info]: i16 v,h,dc,p: 45% 17% 10% 28%
x264 [info]: i8 v,h,dc,ddl,ddr,vr,hd,vl,hu: 12%  7%  7%  9% 14% 13% 14% 11% 13%
x264 [info]: i4 v,h,dc,ddl,ddr,vr,hd,vl,hu: 32%  5%  5%  7% 11% 11% 10%  9% 10%
x264 [info]: i8c dc,h,v,p: 37% 28% 20% 15%
x264 [info]: Weighted P-Frames: Y:4.5% UV:1.5%
x264 [info]: ref P L0: 44.4% 12.5% 17.0%  5.8%  4.8%  3.4%  3.1%  1.7%  1.6%  1.3%  1.2%  1.1%  1.0%  1.0%  0.2%  0.0%
x264 [info]: ref B L0: 70.5% 12.2%  5.5%  2.9%  2.1%  1.8%  1.4%  0.9%  0.8%  0.7%  0.6%  0.4%  0.2%
x264 [info]: ref B L1: 92.1%  7.9%
x264 [info]: kb/s:2231.66

General
Unique ID : 217124871793558460832354889998817705356 (0xA358BAAE8B8549CD9FDA2A063C5E3D8C)
Complete name : I:\Other\Put.Domoi.2010.DUAL.BDRip-AVC.AC3.-HQ-ViDEO.mkv
Format : Matroska
Format version : Version 2
File size : 2.91 GiB
Duration : 2h 13mn
Overall bit rate : 3 130 Kbps
Movie name : Put Domoi / 2010 / Release by Vaippp / HQ-ViDEO
Encoded date : UTC 2011-11-01 04:27:25
Writing application : mkvmerge v5.0.1 ('Es ist Sommer') built on Oct 9 2011 11:55:43
Writing library : libebml v1.2.2 + libmatroska v1.3.0

Video
ID : 1
Format : AVC
Format/Info : Advanced Video Codec
Format profile : High@L4.1
Format settings, CABAC : Yes
Format settings, ReFrames : 14 frames
Codec ID : V_MPEG4/ISO/AVC
Duration : 2h 13mn
Bit rate : 2 232 Kbps
Width : 1 024 pixels
Height : 436 pixels
Display aspect ratio : 2.35:1
Frame rate : 23.976 fps
Color space : YUV
Chroma subsampling : 4:2:0
Bit depth : 8 bits
Scan type : Progressive
Bits/(Pixel*Frame) : 0.209
Stream size : 2.02 GiB (69%)
Title : BDRip 01/11/2011
Writing library : x264 core 119 r2106 07efeb4
Encoding settings : cabac=1 / ref=14 / deblock=1:-2:-1 / analyse=0x3:0x113 / me=umh / subme=10 / psy=1 / psy_rd=1.00:0.00 / mixed_ref=1 / me_range=32 / chroma_me=1 / trellis=2 / 8x8dct=1 / cqm=0 / deadzone=21,11 / fast_pskip=0 / chroma_qp_offset=-1 / threads=12 / sliced_threads=0 / nr=0 / decimate=1 / interlaced=0 / bluray_compat=0 / constrained_intra=0 / bframes=13 / b_pyramid=2 / b_adapt=2 / b_bias=0 / direct=3 / weightb=1 / open_gop=0 / weightp=2 / keyint=250 / keyint_min=23 / scenecut=40 / intra_refresh=0 / rc_lookahead=40 / rc=2pass / mbtree=0 / bitrate=2232 / ratetol=1.0 / qcomp=0.70 / qpmin=0 / qpmax=69 / qpstep=4 / cplxblur=20.0 / qblur=0.5 / vbv_maxrate=40000 / vbv_bufsize=30000 / nal_hrd=none / ip_ratio=1.35 / pb_ratio=1.25 / aq=2:0.80 / zones=180972,191613,q=35
Language : English
Matrix coefficients : BT.709-5, BT.1361, IEC 61966-2-4 709, SMPTE RP177

Audio #1
ID : 2
Format : AC-3
Format/Info : Audio Coding 3
Mode extension : CM (complete main)
Codec ID : A_AC3
Duration : 2h 13mn
Bit rate mode : Constant
Bit rate : 448 Kbps
Channel(s) : 6 channels
Channel positions : Front: L C R, Side: L R, LFE
Sampling rate : 48.0 KHz
Bit depth : 16 bits
Compression mode : Lossy
Stream size : 427 MiB (14%)
Title : MVO @ R5
Language : Russian

Audio #2
ID : 3
Format : AC-3
Format/Info : Audio Coding 3
Mode extension : CM (complete main)
Codec ID : A_AC3
Duration : 2h 13mn
Bit rate mode : Constant
Bit rate : 448 Kbps
Channel(s) : 6 channels
Channel positions : Front: L C R, Side: L R, LFE
Sampling rate : 48.0 KHz
Bit depth : 16 bits
Compression mode : Lossy
Stream size : 427 MiB (14%)
Title : ORG
Language : English

Text #1
ID : 4
Format : UTF-8
Codec ID : S_TEXT/UTF8
Codec ID/Info : UTF-8 Plain Text
Language : Russian

Text #2
ID : 5
Format : UTF-8
Codec ID : S_TEXT/UTF8
Codec ID/Info : UTF-8 Plain Text
Language : English

Menu
00:00:00.000 : en:00:00:00.000
00:02:14.968 : en:00:02:14.968
00:12:47.475 : en:00:12:47.475
00:22:49.326 : en:00:22:49.326
00:33:29.382 : en:00:33:29.382
00:45:12.376 : en:00:45:12.376
00:55:41.672 : en:00:55:41.672
01:07:05.772 : en:01:07:05.772
01:16:34.006 : en:01:16:34.006
01:29:37.455 : en:01:29:37.455
01:39:41.142 : en:01:39:41.142
01:48:29.294 : en:01:48:29.294
01:56:42.454 : en:01:56:42.454
02:06:01.929 : en:02:06:01.929
Скриншоты

загрузка...
Правила, инструкции, FAQ!!!
Торрент  Добавлен [14 фев 2014, 07:44] Скачать торрент
Скачать торрент
[ Размер 15.13 КБ / Просмотров 7 ]

Статус  
 
Размер  2.91 ГБ
Приватный: Нет (DHT включён)
.torrent скачан  0
Как залить торрент? | Как скачать Torrent? | Как смотреть и слушать онлайн?  


     Отправить личное сообщение
   
Страница 1 из 1
Показать сообщения за:  Поле сортировки  
Начать новую тему Ответить на тему

   Похожие торренты   Автор   Ответы   Просмотры   Последнее сообщение 
В этой теме нет новых непрочитанных сообщений. Скачать торрент Ганнибал: Восхождение / Hannibal Rising (Питер Веббер / Peter Webber) [2007, триллер, драма, BDRip-AVC] MVO + AVO (Рябов) + Original + Subs (Rus, Eng)

в форуме 720p | 1080p, Размер: 2.88 ГБ, Здоровье: 100%

Anonymous

0
23|7

71
1

07 фев 2014, 11:42

Anonymous Перейти к последнему сообщению

В этой теме нет новых непрочитанных сообщений. Скачать торрент Хозяин Морей: На краю земли / Master and Commander: The Far Side of the World (Питер Уир /Peter Weir) [2003 г., приключения, боевик, драма, DVDRip]

в форуме Приключения, Размер: 699.67 МБ, Здоровье: 100%

Anonymous

0
1|1

114
0

29 апр 2014, 13:55

Anonymous Перейти к последнему сообщению

В этой теме нет новых непрочитанных сообщений. Скачать торрент Проверен [iPad] Шоу Трумана / The Truman Show (Питер Уир / Peter Weir) [1998, фантастика, драма, комедия, BDRip, 720p]

в форуме Фильмы для iPod, iPhone, iPad, Размер: 2.77 ГБ, Здоровье: 100%

Гость

0
38|9

39
3

18 май 2015, 10:49

Гость Перейти к последнему сообщению

В этой теме нет новых непрочитанных сообщений. Скачать торрент Проверен Питер Пэн / Peter Pan (П.Дж. Хоган / P.J. Hogan) [2003, фэнтези, мелодрама, приключения, семейный, BDRip, 480p] DUB, Original + sub(rus, eng)

в форуме Фильмы для iPod, iPhone, iPad, Размер: 1.4 ГБ, Здоровье: 100%

Гость

0
9|3

41
0

14 май 2015, 00:19

Гость Перейти к последнему сообщению

В этой теме нет новых непрочитанных сообщений. Скачать торрент Без имени / Sin nombre (Кэри Фукунага / Cary Fukunaga) [2009 г., триллер, драма, приключения, криминал, BDRip-AVC] VO + Original + Commentary + Subs (rus, eng)

в форуме 720p | 1080p, Размер: 2.21 ГБ, Здоровье: 100%

Anonymous

0
5|1

26
0

12 фев 2014, 11:45

Anonymous Перейти к последнему сообщению



Сейчас этот форум просматривают: нет зарегистрированных пользователей и гости: 2


Вы не можете начинать темы
Вы не можете отвечать на сообщения
Вы не можете редактировать свои сообщения
Вы не можете удалять свои сообщения
Вы не можете добавлять вложения

Перейти:  

!ВНИМАНИЕ!
 Ресурс не предоставляет электронные версии произведений, а занимается лишь коллекционированием и каталогизацией ссылок, присылаемых и публикуемых на форуме нашими читателями. Если вы являетесь правообладателем какого-либо представленного материала и не желаете чтобы ссылка на него находилась в нашем каталоге, свяжитесь с нами и мы незамедлительно удалим её. Файлы для обмена на трекере предоставлены пользователями сайта, и администрация не несёт ответственности за их содержание. Просьба не заливать файлы, защищенные авторскими правами, а также файлы нелегального содержания!