На всех торрентах на трекере установлена скидка на скачивание в размере 100 процентов(а).
 Возможность скачивания торрента НЕ зависит от ограничений при низком ратио, низком аплоаде, требуемом ратио или требуемом аплоаде.


Начать новую тему Ответить на тему
Статистика раздачи
Размер: 1.46 ГБ | Добавлен: 14 фев 2014, 07:44 | Скачали: 0
Сидеров: 0  [0 байт/сек]    Личеров: 0  [0 байт/сек]
Пред. тема | След. тема 

Автор
Сообщение

СообщениеДобавлено: 14 фев 2014, 07:44 

Астрал / Insidious
«Это не дом населён призраками...»


Страна: США
Жанр: ужасы, триллер
Год выпуска: 2010
Продолжительность: 01:42:52
Перевод: Профессиональный (дублированный) | Лицензия
Cубтитры Русские, Украинские, Английские (полные + SDH).
Режиссер: Джеймс Ван / James Wan
В ролях: Патрик Уилсон / Patrick Wilson, Роуз Бирн / Rose Byrne, Тай Симпкинс / Ty Simpkins, Лин Шэй / Lin Shaye, Ли Уоннелл / Leigh Whannell, Энгус Сэмпсон / Angus Sampson, Барбара Херши / Barbara Hershey, Эндрю Эстор / Andrew Astor, Корбетт Так / Corbett Tuck, Хезер Токуини / Heather Tocquigny
Описание:
Джош и Рене переезжают со своими детьми в новый дом, но не успевают толком распаковать вещи, как начинаются странные события. Необъяснимо перемещаются предметы, в детской звучат странные звуки… Но в настоящий ужас приходят родители, когда их десятилетний сын Далтон впадает в кому. Все усилия врачей в больнице помочь мальчику безуспешны.
Несколько месяцев спустя его возвращают домой, где за несчастным ребенком ухаживают мать и сиделка. Но загадочные явления в доме продолжаются. Отчаявшиеся родители готовы обратиться за помощью к кому угодно и вскоре выясняется, что Далтон в бессознательном состоянии связан с паранормальным миром...






Качество видео: BDRip-AVC | исх. Insidious.2010.BDRemux.1080p.Rus.Eng.Subs.AVC.DTS-HD.MA
Формат видео: MKV
Видео: H.264 / 1184 x 492 / 2.40:1 / 1577 kbps / 23,976 fps
Аудио: Русский / AC3 Dolby Digital / 48 KHz / 448 kbps / 3/2 (L,C,R,l,r) + LFE ch
Формат субтитров: softsub (SRT)
СЭМПЛ
Релиз:
MediaInfo/log
log
Код:
Код:
avs [info]: 1184x492p 1:1 @ 24000/1001 fps (cfr)
x264 [info]: using SAR=1/1
x264 [info]: using cpu capabilities: MMX2 SSE2Fast SSSE3 FastShuffle SSE4.2
x264 [info]: profile High, level 4.1

x264 [info]: frame I:1132  Avg QP:15.49  size: 51868
x264 [info]: frame P:31753 Avg QP:17.27  size: 15747
x264 [info]: frame B:115099 Avg QP:18.57  size:  5706
x264 [info]: consecutive B-frames:  2.1%  2.3%  6.4% 26.0% 17.2% 28.5%  6.8%  6.5%  1.7%  1.1%  0.7%  0.9%
x264 [info]: mb I  I16..4: 14.8% 64.4% 20.8%
x264 [info]: mb P  I16..4:  1.2%  5.2%  0.9%  P16..4: 32.7% 36.4%  9.3%  0.0%  0.0%    skip:14.3%
x264 [info]: mb B  I16..4:  0.1%  0.4%  0.1%  B16..8: 34.9% 17.5%  2.1%  direct: 3.2%  skip:41.7%  L0:41.8% L1:48.3% BI:10.0%
x264 [info]: 8x8 transform intra:69.9% inter:58.8%
x264 [info]: direct mvs  spatial:97.9% temporal:2.1%
x264 [info]: coded y,uvDC,uvAC intra: 76.9% 59.1% 35.1% inter: 13.5% 6.8% 0.9%
x264 [info]: i16 v,h,dc,p: 40% 13%  6% 40%
x264 [info]: i8 v,h,dc,ddl,ddr,vr,hd,vl,hu: 11%  6%  7% 10% 14% 14% 13% 13% 12%
x264 [info]: i4 v,h,dc,ddl,ddr,vr,hd,vl,hu: 12%  6%  8% 11% 15% 13% 12% 11% 12%
x264 [info]: i8c dc,h,v,p: 32% 35% 19% 14%
x264 [info]: Weighted P-Frames: Y:4.9% UV:2.6%
x264 [info]: ref P L0: 50.3%  7.6% 19.2%  7.2%  5.4%  4.2%  3.5%  2.2%  0.4%  0.0%
x264 [info]: ref B L0: 75.6% 12.7%  5.8%  2.6%  1.8%  1.0%  0.4%
x264 [info]: ref B L1: 91.8%  8.2%

General
Unique ID : 243541981759525141129801648603444749877 (0xB7387AC30ACE4C89A330588B8F872635)
Complete name : I:\Other\Astral.2010.RUS.BDRip-AVC.AC3.-HQ-ViDEO.mkv
Format : Matroska
Format version : Version 2
File size : 1.46 GiB
Duration : 1h 42mn
Overall bit rate : 2 025 Kbps
Movie name : Astral / 2010 / Release by Vaippp / HQ-ViDEO
Encoded date : UTC 2011-09-10 04:44:55
Writing application : mkvmerge v4.9.1 ('Ich will') сборка от Jul 11 2011 23:53:15
Writing library : libebml v1.2.1 + libmatroska v1.1.1

Video
ID : 1
Format : AVC
Format/Info : Advanced Video Codec
Format profile : High@L4.1
Format settings, CABAC : Yes
Format settings, ReFrames : 8 frames
Codec ID : V_MPEG4/ISO/AVC
Duration : 1h 42mn
Bit rate : 1 577 Kbps
Width : 1 184 pixels
Height : 492 pixels
Display aspect ratio : 2.40:1
Frame rate : 23.976 fps
Color space : YUV
Chroma subsampling : 4:2:0
Bit depth : 8 bits
Scan type : Progressive
Bits/(Pixel*Frame) : 0.113
Stream size : 1.10 GiB (76%)
Title : BDRip 10/09/2011
Writing library : x264 core 116 r2074 2641b9e
Encoding settings : cabac=1 / ref=8 / deblock=1:-3:-2 / analyse=0x3:0x113 / me=umh / subme=11 / psy=1 / psy_rd=1.10:0.05 / mixed_ref=1 / me_range=48 / chroma_me=1 / trellis=2 / 8x8dct=1 / cqm=0 / deadzone=21,11 / fast_pskip=0 / chroma_qp_offset=-2 / threads=12 / sliced_threads=0 / nr=0 / decimate=1 / interlaced=0 / bluray_compat=0 / constrained_intra=0 / bframes=11 / b_pyramid=2 / b_adapt=2 / b_bias=0 / direct=3 / weightb=1 / open_gop=0 / weightp=2 / keyint=250 / keyint_min=23 / scenecut=40 / intra_refresh=0 / rc_lookahead=40 / rc=2pass / mbtree=0 / bitrate=1577 / ratetol=1.0 / qcomp=0.65 / qpmin=0 / qpmax=69 / qpstep=4 / cplxblur=20.0 / qblur=0.5 / vbv_maxrate=40000 / vbv_bufsize=30000 / nal_hrd=none / ip_ratio=1.40 / pb_ratio=1.30 / aq=2:0.80 / zones=142573,147983,q=30
Language : English
Matrix coefficients : BT.709-5, BT.1361, IEC 61966-2-4 709, SMPTE RP177

Audio
ID : 2
Format : AC-3
Format/Info : Audio Coding 3
Mode extension : CM (complete main)
Codec ID : A_AC3
Duration : 1h 42mn
Bit rate mode : Constant
Bit rate : 448 Kbps
Channel(s) : 6 channels
Channel positions : Front: L C R, Side: L R, LFE
Sampling rate : 48.0 KHz
Bit depth : 16 bits
Compression mode : Lossy
Stream size : 330 MiB (22%)
Title : DUB
Language : Russian

Text #1
ID : 3
Format : UTF-8
Codec ID : S_TEXT/UTF8
Codec ID/Info : UTF-8 Plain Text
Language : Russian

Text #2
ID : 4
Format : UTF-8
Codec ID : S_TEXT/UTF8
Codec ID/Info : UTF-8 Plain Text
Language : Ukrainian

Text #3
ID : 5
Format : UTF-8
Codec ID : S_TEXT/UTF8
Codec ID/Info : UTF-8 Plain Text
Language : English

Text #4
ID : 6
Format : UTF-8
Codec ID : S_TEXT/UTF8
Codec ID/Info : UTF-8 Plain Text
Title : SDH
Language : English

Menu
00:00:00.000 : en:00:00:00.000
00:07:39.000 : en:00:07:39.000
00:11:59.218 : en:00:11:59.218
00:17:59.578 : en:00:17:59.578
00:23:46.884 : en:00:23:46.884
00:30:32.247 : en:00:30:32.247
00:35:44.893 : en:00:35:44.893
00:43:48.251 : en:00:43:48.251
00:47:34.060 : en:00:47:34.060
00:54:06.118 : en:00:54:06.118
01:01:36.526 : en:01:01:36.526
01:09:12.815 : en:01:09:12.815
01:14:06.067 : en:01:14:06.067
01:22:37.327 : en:01:22:37.327
01:27:53.393 : en:01:27:53.393
01:35:58.878 : en:01:35:58.878
Скриншоты

загрузка...
Правила, инструкции, FAQ!!!
Торрент  Добавлен [14 фев 2014, 07:44] Скачать торрент
Скачать торрент
[ Размер 15.13 КБ / Просмотров 8 ]

Статус  
 
Размер  1.46 ГБ
Приватный: Нет (DHT включён)
.torrent скачан  0
Как залить торрент? | Как скачать Torrent? | Как смотреть и слушать онлайн?  


     Отправить личное сообщение
   
Страница 1 из 1
Показать сообщения за:  Поле сортировки  
Начать новую тему Ответить на тему

   Похожие торренты   Автор   Ответы   Просмотры   Последнее сообщение 
В этой теме нет новых непрочитанных сообщений. Скачать торрент Пила. Игра на выживание / Saw (Джеймс Ван / James Wan) [2004, США, ужасы, триллер, BDRip-AVC] [Director's Cut] Dub

в форуме Ужасы, Размер: 1.73 ГБ, Здоровье: 100%

Anonymous

0
19|6

46
0

25 апр 2014, 08:55

Anonymous Перейти к последнему сообщению

В этой теме нет новых непрочитанных сообщений. Скачать торрент Вторжение / The Invasion (Оливер Хиршбигель / Oliver Hirschbiegel, Джеймс МакТиг / James McTeigue) [2007, США, Австралия, Ужасы, Триллер, Фантастика, BDRip] DUB

в форуме Ужасы, Размер: 1.45 ГБ, Здоровье: 0%

Anonymous

0
0|0

42
0

16 фев 2014, 13:06

Anonymous Перейти к последнему сообщению

В этой теме нет новых непрочитанных сообщений. Скачать торрент Замёрзшие / Frozen (Адам Грин / Adam Green) [2010, Ужасы, триллер, драма, BDRip] Dub + Original (Eng) + Subs (Rus, Eng)

в форуме Ужасы, Размер: 1.7 ГБ, Здоровье: 100%

Anonymous

0
32|11

45
0

17 май 2014, 20:05

Anonymous Перейти к последнему сообщению

В этой теме нет новых непрочитанных сообщений. Скачать торрент Астрал: Глава 2 / Insidious: Chapter 2 (2013) BDRip-AVC | Лицензия

в форуме 720p | 1080p, Размер: 1.46 ГБ, Здоровье: 100%

Anonymous

0
70|1

153
6

15 янв 2014, 06:23

Anonymous Перейти к последнему сообщению

В этой теме нет новых непрочитанных сообщений. Скачать торрент Астрал: Глава 2 / Insidious: Chapter 2 (2013) BDRip 720p | L1

в форуме 720p | 1080p, Размер: 2.44 ГБ, Здоровье: 0%

Anonymous

0
0|0

107
0

10 дек 2013, 20:16

Anonymous Перейти к последнему сообщению



Сейчас этот форум просматривают: нет зарегистрированных пользователей и гости: 4


Вы не можете начинать темы
Вы не можете отвечать на сообщения
Вы не можете редактировать свои сообщения
Вы не можете удалять свои сообщения
Вы не можете добавлять вложения

Перейти:  

!ВНИМАНИЕ!
 Ресурс не предоставляет электронные версии произведений, а занимается лишь коллекционированием и каталогизацией ссылок, присылаемых и публикуемых на форуме нашими читателями. Если вы являетесь правообладателем какого-либо представленного материала и не желаете чтобы ссылка на него находилась в нашем каталоге, свяжитесь с нами и мы незамедлительно удалим её. Файлы для обмена на трекере предоставлены пользователями сайта, и администрация не несёт ответственности за их содержание. Просьба не заливать файлы, защищенные авторскими правами, а также файлы нелегального содержания!