На всех торрентах на трекере установлена скидка на скачивание в размере 100 процентов(а).
 Возможность скачивания торрента НЕ зависит от ограничений при низком ратио, низком аплоаде, требуемом ратио или требуемом аплоаде.


Начать новую тему Ответить на тему
Статистика раздачи
Размер: 2.85 ГБ | Добавлен: 13 фев 2014, 20:08 | Скачали: 0
Сидеров: 0  [0 байт/сек]    Личеров: 0  [0 байт/сек]
Пред. тема | След. тема 

Автор
Сообщение

СообщениеДобавлено: 13 фев 2014, 20:08 

Название: Пятая власть
Оригинальное название: The Fifth Estate
Год выхода: 2013
Жанр: Триллер, драма, биография
Режиссер: Билл Кондон

В ролях: Бенедикт Камбербэтч, Даниэль Брюль, Энтони Маки, Дэвид Тьюлис, Алисия Викандер, Стэнли Туччи, Лора Линни, Питер Капальди, Анатоль Таубман, Александр Байер

О фильме:
В мире, где информация ценится превыше всего, а утечка сведений под грифом «секретно» может вызвать необратимые последствия, сайт WikiLeaks навсегда поменял правила игры. Фильм, основанный на реальных событиях, рассказывает о попытке разоблачить государственную коррупцию и ложь властей, которая превратила интернет-стартап в одну из самых известных и обсуждаемых организаций 21-го века. За первые годы существования WIKILEAKS обнародовал больше тайн, чем самые влиятельные в мире СМИ вместе взятые, раскрывая постыдные секреты государственных служб и финансовые преступления корпораций. Но когда основатели сайта получили доступ к крупнейшему засекреченному архиву США, им предстояло найти для себя ответ на один из важнейших вопросов современности: какова цена тайны в свободном обществе — и какова цена ее разглашения?





Страна: США, Бельгия / DreamWorks SKG, Reliance Entertainment, Participant Media
Продолжительность: 02:08:15
Перевод: Дублированный


Качество: BDRip-AVC [ BDRemux]
Видео: MPEG-4 AVC, 2348 Кбит/с, 1024x428, 23.976 кадр/с
Аудио №1: русский / AC3 / 5.1 / 48 kHz / 384 / 16 bit |Лицензия|
Аудио №2: английский / AC3 / 5.1 / 48 kHz / 448 kbps / 16 bit
Субтитры: Русские, английские
Навигация по главам: есть
Семпл

x264 [info]: frame I:1651 Avg QP:15.09 size: 72528
x264 [info]: frame P:45917 Avg QP:18.33 size: 23807
x264 [info]: frame B:136945 Avg QP:20.01 size: 7638

Format : Matroska
Format version : Version 4 / Version 2
File size : 2.85 GiB
Duration : 2h 8mn
Overall bit rate : 3 183 Kbps
Movie name : -=MediaClub - Odessit=-
Encoded date : UTC 2014-02-13 16:48:24
Writing application : mkvmerge v6.7.0 ('Back to the Ground') 32bit built on Jan 8 2014 15:03:17
Writing library : libebml v1.3.0 + libmatroska v1.4.1

Video
ID : 1
Format : AVC
Format/Info : Advanced Video Codec
Format profile : High@L4.1
Format settings, CABAC : Yes
Format settings, ReFrames : 10 frames
Codec ID : V_MPEG4/ISO/AVC
Duration : 2h 8mn
Bit rate : 2 348 Kbps
Width : 1 024 pixels
Height : 428 pixels
Display aspect ratio : 2.40:1
Frame rate : 23.976 fps
Color space : YUV
Chroma subsampling : 4:2:0
Bit depth : 8 bits
Scan type : Progressive
Bits/(Pixel*Frame) : 0.223
Stream size : 2.05 GiB (72%)
Writing library : x264 core 130 r2273 b3065e6
Encoding settings : cabac=1 / ref=10 / deblock=1:-2:-2 / analyse=0x3:0x113 / me=umh / subme=11 / psy=1 / psy_rd=1.00:0.20 / mixed_ref=1 / me_range=48 / chroma_me=1 / trellis=2 / 8x8dct=1 / cqm=0 / deadzone=21,11 / fast_pskip=0 / chroma_qp_offset=-3 / threads=6 / lookahead_threads=1 / sliced_threads=0 / nr=0 / decimate=0 / interlaced=0 / bluray_compat=0 / constrained_intra=0 / bframes=9 / b_pyramid=2 / b_adapt=2 / b_bias=0 / direct=3 / weightb=1 / open_gop=0 / weightp=2 / keyint=240 / keyint_min=23 / scenecut=40 / intra_refresh=0 / rc=2pass / mbtree=0 / bitrate=2348 / ratetol=1.0 / qcomp=0.60 / qpmin=0 / qpmax=69 / qpstep=4 / cplxblur=20.0 / qblur=0.5 / ip_ratio=1.40 / pb_ratio=1.30 / aq=1:0.80
Language : English

Audio #1
ID : 2
Format : AC-3
Format/Info : Audio Coding 3
Mode extension : CM (complete main)
Codec ID : A_AC3
Duration : 2h 8mn
Bit rate mode : Constant
Bit rate : 384 Kbps
Channel(s) : 6 channels
Channel positions : Front: L C R, Side: L R, LFE
Sampling rate : 48.0 KHz
Bit depth : 16 bits
Compression mode : Lossy
Stream size : 352 MiB (12%)
Title : Дублированный ( Лицензия)
Language : Russian

Audio #2
ID : 3
Format : AC-3
Format/Info : Audio Coding 3
Mode extension : CM (complete main)
Codec ID : A_AC3
Duration : 2h 8mn
Bit rate mode : Constant
Bit rate : 448 Kbps
Channel(s) : 6 channels
Channel positions : Front: L C R, Side: L R, LFE
Sampling rate : 48.0 KHz
Bit depth : 16 bits
Compression mode : Lossy
Stream size : 411 MiB (14%)
Language : English

Text #1
ID : 4
Format : UTF-8
Codec ID : S_TEXT/UTF8
Codec ID/Info : UTF-8 Plain Text
Language : Russian

Text #2
ID : 5
Format : UTF-8
Codec ID : S_TEXT/UTF8
Codec ID/Info : UTF-8 Plain Text
Title : Forced
Language : English

Text #3
ID : 6
Format : UTF-8
Codec ID : S_TEXT/UTF8
Codec ID/Info : UTF-8 Plain Text
Title : SDH
Language : English

Menu
00:00:00.000 : :Chapter 01
00:05:53.144 : :Chapter 02
00:12:18.446 : :Chapter 03
00:19:35.007 : :Chapter 04
00:26:17.993 : :Chapter 05
00:34:17.472 : :Chapter 06
00:40:31.720 : :Chapter 07
00:46:53.852 : :Chapter 08
00:54:58.336 : :Chapter 09
01:01:29.852 : :Chapter 10
01:06:38.119 : :Chapter 11
01:14:39.266 : :Chapter 12
01:20:30.951 : :Chapter 13
01:32:05.978 : :Chapter 14
01:39:26.085 : :Chapter 15
01:47:48.670 : :Chapter 16
01:56:02.622 : :Chapter 17
02:02:54.909 : :Chapter 18
02:08:15.479 : :Chapter 19



Релиз от: |
загрузка...
Правила, инструкции, FAQ!!!
Торрент  Добавлен [13 фев 2014, 20:08] Скачать торрент
Скачать торрент
[ Размер 14.77 КБ / Просмотров 10 ]

Статус  
 
Размер  2.85 ГБ
Приватный: Нет (DHT включён)
.torrent скачан  0
Как залить торрент? | Как скачать Torrent? | Как смотреть и слушать онлайн?  


     Отправить личное сообщение
   
Страница 1 из 1
Показать сообщения за:  Поле сортировки  
Начать новую тему Ответить на тему

   Похожие торренты   Автор   Ответы   Просмотры   Последнее сообщение 
В этой теме нет новых непрочитанных сообщений. Скачать торрент Пятая власть / The Fifth Estate (2013) BDRip 720p | Лицензия

в форуме 720p | 1080p, Размер: 3.48 ГБ, Здоровье: 0%

Anonymous

0
0|0

22
0

15 фев 2014, 17:23

Anonymous Перейти к последнему сообщению

В этой теме нет новых непрочитанных сообщений. Скачать торрент Пятая власть / The Fifth Estate (2013) HDRip | D

в форуме Триллеры, Размер: 1.45 ГБ, Здоровье: 0%

Anonymous

0
0|0

37
0

02 фев 2014, 12:07

Anonymous Перейти к последнему сообщению

В этой теме нет новых непрочитанных сообщений. Скачать торрент Проверен Власть огня / Reign of Fire (2002) BDRip 720p | D | Лицензия

в форуме 720p | 1080p, Размер: 7.74 ГБ, Здоровье: 100%

Anonymous

0
5|0

40
15

29 июн 2014, 22:42

Anonymous Перейти к последнему сообщению

В этой теме нет новых непрочитанных сообщений. Скачать торрент Проверен Абсолютная власть / Imperium (2016) BDRip | L

в форуме Триллеры, Размер: 1.46 ГБ, Здоровье: 50%

Гость

0
1|2

172
2

24 окт 2016, 22:05

Гость Перейти к последнему сообщению

В этой теме нет новых непрочитанных сообщений. Скачать торрент Власть страха / The Bone Collector (1999) BDRip-AVC | D

в форуме 720p | 1080p, Размер: 1.49 ГБ, Здоровье: 0%

Anonymous

0
0|0

32
0

23 фев 2014, 15:43

Anonymous Перейти к последнему сообщению



Сейчас этот форум просматривают: нет зарегистрированных пользователей и гости: 3


Вы не можете начинать темы
Вы не можете отвечать на сообщения
Вы не можете редактировать свои сообщения
Вы не можете удалять свои сообщения
Вы не можете добавлять вложения

Перейти:  

!ВНИМАНИЕ!
 Ресурс не предоставляет электронные версии произведений, а занимается лишь коллекционированием и каталогизацией ссылок, присылаемых и публикуемых на форуме нашими читателями. Если вы являетесь правообладателем какого-либо представленного материала и не желаете чтобы ссылка на него находилась в нашем каталоге, свяжитесь с нами и мы незамедлительно удалим её. Файлы для обмена на трекере предоставлены пользователями сайта, и администрация не несёт ответственности за их содержание. Просьба не заливать файлы, защищенные авторскими правами, а также файлы нелегального содержания!