На всех торрентах на трекере установлена скидка на скачивание в размере 100 процентов(а).
 Возможность скачивания торрента НЕ зависит от ограничений при низком ратио, низком аплоаде, требуемом ратио или требуемом аплоаде.


Начать новую тему Ответить на тему
Статистика раздачи
Размер: 1.42 ГБ | Добавлен: 13 фев 2014, 06:34 | Скачали: 0
Сидеров: 0  [0 байт/сек]    Личеров: 0  [0 байт/сек]
Пред. тема | След. тема 

Автор
Сообщение

СообщениеДобавлено: 13 фев 2014, 06:34 

Погранзастава / Karaula / The Border Post

Страна: Босния, Словения, Македония, Хорватия, Сербия, Великобритания, Венгрия, Австрия
Жанр: трагедия, комедия
Год выпуска: 2006
Продолжительность: 01:30:41

Перевод: Субтитры
Cубтитры: русские, английские, македонские, словенские
Оригинальная аудиодорожка: сербский

Режиссер: Райко Грлич / Rajko Grlić

В ролях: Тони Гойянович, Сергей Трифунович, Эмир Хаджихафизбегович, Верица Недеска, Богдан Диклич

Описание: Весна 1987 года. Маленький пограничный пост на югославо-албанской границе. Несостоявшийся и всегда пьяный начальник заставы Сафет Пашич чувствует странную боль в своем паху. Он обращается за помощью к медбрату Синише, который диагностирует сифилис. Не желая, чтобы его жена знала об этом, Пашич пытается найти повод не возвращаться домой до полного излечения и объявляет чрезвычайное положение, утверждая, что албанская армия готовит масштабную диверсию на границе.



Сэмпл: http://multi-up.com/925358

Софт: HandBrake, mkvmerge, mediainfo

Качество видео: DVDRip
Формат видео: MKV

Видео: H264, 720х416, 16:9, 25.000 fps, 1800 kbps
Аудио: AC3 Dolby Digital, 48 kHz, 448 Кбит/сек, 2 ch (LR), Serbian
Формат субтитров: prerendered (IDX+SUB)
MediaInfo
General
Unique ID : 105550413676007508616519709765071762718 (0x4F68452E10015C4D116EB980F287751E)
Complete name : Karaula-2006.mkv
Format : Matroska
Format version : Version 2
File size : 1.43 GiB
Duration : 1h 30mn
Overall bit rate : 2 262 Kbps
Writing application : HandBrake 4450svn
Writing library : libmkv 0.6.5

Video
ID : 1
Format : AVC
Format/Info : Advanced Video Codec
Format profile : High@L3.1
Format settings, CABAC : Yes
Format settings, ReFrames : 7 frames
Codec ID : V_MPEG4/ISO/AVC
Duration : 1h 30mn
Bit rate : 1 800 Kbps
Width : 720 pixels
Height : 416 pixels
Display aspect ratio : 16:9
Original display aspect ratio : 16:9
Frame rate : 25.000 fps
Color space : YUV
Chroma subsampling : 4:2:0
Bit depth : 8 bits
Scan type : Progressive
Bits/(Pixel*Frame) : 0.240
Stream size : 1.12 GiB (78%)
Writing library : x264 core 120
Encoding settings : cabac=1 / ref=7 / deblock=1:0:0 / analyse=0x3:0x113 / me=umh / subme=9 / psy=1 / psy_rd=1.00:0.00 / mixed_ref=1 / me_range=24 / chroma_me=1 / trellis=1 / 8x8dct=1 / cqm=0 / deadzone=21,11 / fast_pskip=1 / chroma_qp_offset=-2 / threads=3 / sliced_threads=0 / nr=0 / decimate=1 / interlaced=0 / bluray_compat=0 / constrained_intra=0 / bframes=10 / b_pyramid=2 / b_adapt=2 / b_bias=0 / direct=1 / weightb=1 / open_gop=0 / weightp=2 / keyint=250 / keyint_min=25 / scenecut=40 / intra_refresh=0 / rc_lookahead=50 / rc=abr / mbtree=1 / bitrate=1800 / ratetol=1.0 / qcomp=0.60 / qpmin=3 / qpmax=69 / qpstep=4 / ip_ratio=1.40 / aq=1:1.00
Language : English
Default : Yes
Forced : No
Color primaries : BT.601-6 525, BT.1358 525, BT.1700 NTSC, SMPTE 170M
Transfer characteristics : BT.709-5, BT.1361
Matrix coefficients : BT.601-6 525, BT.1358 525, BT.1700 NTSC, SMPTE 170M

Audio
ID : 2
Format : AC-3
Format/Info : Audio Coding 3
Format profile : Dolby Digital
Mode extension : CM (complete main)
Codec ID : A_AC3
Duration : 1h 30mn
Bit rate mode : Constant
Bit rate : 448 Kbps
Channel(s) : 2 channels
Channel positions : Front: L R
Sampling rate : 48.0 KHz
Bit depth : 16 bits
Compression mode : Lossy
Stream size : 291 MiB (20%)
Language : Serbian
Default : Yes
Forced : No

Text #1
ID : 3
Format : VobSub
Codec ID : S_VOBSUB
Codec ID/Info : The same subtitle format used on DVDs
Language : Russian
Default : No
Forced : No

Text #2
ID : 4
Format : VobSub
Codec ID : S_VOBSUB
Codec ID/Info : The same subtitle format used on DVDs
Language : English
Default : No
Forced : No

Text #3
ID : 5
Format : VobSub
Codec ID : S_VOBSUB
Codec ID/Info : The same subtitle format used on DVDs
Language : Slovenian
Default : No
Forced : No

Text #4
ID : 6
Format : VobSub
Codec ID : S_VOBSUB
Codec ID/Info : The same subtitle format used on DVDs
Language : Macedonian
Default : No
Forced : No

Menu
00:00:00.000 : Chapter 1
00:06:57.760 : Chapter 2
00:12:13.600 : Chapter 3
00:15:31.280 : Chapter 4
00:21:05.040 : Chapter 5
00:25:52.320 : Chapter 6
00:30:41.840 : Chapter 7
00:35:32.480 : Chapter 8
00:41:20.240 : Chapter 9
00:45:31.120 : Chapter 10
00:49:39.760 : Chapter 11
00:53:59.040 : Chapter 12
00:58:45.760 : Chapter 13
01:06:15.440 : Chapter 14
01:16:19.680 : Chapter 15
01:25:09.440 : Chapter 16
Скриншоты
загрузка...
Правила, инструкции, FAQ!!!
Торрент  Добавлен [13 фев 2014, 06:34] Скачать торрент
Скачать торрент
[ Размер 29.1 КБ / Просмотров 9 ]

Статус  
 
Размер  1.42 ГБ
Приватный: Нет (DHT включён)
.torrent скачан  0
Как залить торрент? | Как скачать Torrent? | Как смотреть и слушать онлайн?  


     Отправить личное сообщение
   
Страница 1 из 1
Показать сообщения за:  Поле сортировки  
Начать новую тему Ответить на тему

   Похожие торренты   Автор   Ответы   Просмотры   Последнее сообщение 
В этой теме нет новых непрочитанных сообщений. Скачать торрент Белые лилии / Weisse Lilien (Кристиан Фрош / Christian Frosch) [2007, Австрия, Германия, Люксембург, Венгрия, Триллер, DVDRip] VO den904

в форуме Триллеры, Размер: 836.03 МБ, Здоровье: 0%

Anonymous

0
0|0

42
0

12 фев 2014, 11:47

Anonymous Перейти к последнему сообщению

В этой теме нет новых непрочитанных сообщений. Скачать торрент Мир велик, а спасение поджидает за углом / Svetat e golyam i spasenie debne otvsyakade (Стефан Командарев / Stephan Komandarev) [2008, Болгария, Германия, Словения, Венгрия, драма, мелодрама, TVRip]

в форуме Драмы, Мелодрамы, Размер: 1.44 ГБ, Здоровье: 100%

Anonymous

0
7|3

52
1

01 апр 2014, 09:33

Anonymous Перейти к последнему сообщению

В этой теме нет новых непрочитанных сообщений. Скачать торрент Мир тесен / Mali svet (Милош Радович / Milos Radovic) [2003, Сербия и Черногория, комедия, DVDRip] VO + Original Slo

в форуме Комедии, Размер: 1.48 ГБ, Здоровье: 0%

Anonymous

0
0|0

23
0

29 апр 2014, 13:57

Anonymous Перейти к последнему сообщению

В этой теме нет новых непрочитанных сообщений. Скачать торрент Повар-вор / C(r)ook (Пепе Данкарт / Pepe Danquart) [2004, Германия, Австрия, Комедия, криминал, DVDRip] DUB

в форуме Комедии, Размер: 748.29 МБ, Здоровье: 100%

Anonymous

0
3|1

40
0

28 апр 2014, 22:42

Anonymous Перейти к последнему сообщению

В этой теме нет новых непрочитанных сообщений. Скачать торрент Ужас на глубине 9-ти миль / Nine Miles Down (Энтони Уоллер / Anthony Waller) [2009, США, Великобритания, Венгрия, ужасы, HDRip] DVO

в форуме Ужасы, Размер: 763.73 МБ, Здоровье: 0%

Anonymous

0
0|0

37
0

19 апр 2014, 18:52

Anonymous Перейти к последнему сообщению



Сейчас этот форум просматривают: нет зарегистрированных пользователей и гости: 3


Вы не можете начинать темы
Вы не можете отвечать на сообщения
Вы не можете редактировать свои сообщения
Вы не можете удалять свои сообщения
Вы не можете добавлять вложения

Перейти:  

!ВНИМАНИЕ!
 Ресурс не предоставляет электронные версии произведений, а занимается лишь коллекционированием и каталогизацией ссылок, присылаемых и публикуемых на форуме нашими читателями. Если вы являетесь правообладателем какого-либо представленного материала и не желаете чтобы ссылка на него находилась в нашем каталоге, свяжитесь с нами и мы незамедлительно удалим её. Файлы для обмена на трекере предоставлены пользователями сайта, и администрация не несёт ответственности за их содержание. Просьба не заливать файлы, защищенные авторскими правами, а также файлы нелегального содержания!