На всех торрентах на трекере установлена скидка на скачивание в размере 100 процентов(а).
 Возможность скачивания торрента НЕ зависит от ограничений при низком ратио, низком аплоаде, требуемом ратио или требуемом аплоаде.


Начать новую тему Ответить на тему
Статистика раздачи
Размер: 2.18 ГБ | Добавлен: 13 фев 2014, 06:34 | Скачали: 0
Сидеров: 11  [0 байт/сек]    Личеров: 4  [0 байт/сек]
Пред. тема | След. тема 

Автор
Сообщение

СообщениеДобавлено: 13 фев 2014, 06:34 

Всё путем / Everything Must Go

«Lost is a good place to find yourself»Страна: США
Жанр: драма, комедия
Год выпуска: 2010
Продолжительность: 01:37:06

Перевод 1: Профессиональный (многоголосый закадровый) [НТВ+]
Перевод 2: Одноголосый закадровый [keeper_ukr]
Cубтитры: русские, английские
Оригинальная аудиодорожка: английский

Режиссер: Дэн Раш / Dan Rush

В ролях: Уилл Феррелл, Ребекка Холл, Майкл Пенья, Розали Майклс, Стивен Рут, Лора Дерн, Гленн Хоуертон, Тодд Брайант

Описание: Это история потерявшего работу человека, выставленного из дома собственной женой. Вместе с лузером на лужайке оказывается и все его имущество, которое он пытается распродать за четыре дня.



Сэмпл: скачать (23MB)

Качество видео: BDRip-AVC
Формат видео: MKV

Видео: x264, 1152x480 (2.40:1), 23.976 fps, 2124 kbps
Аудио 1: AC-3, 48.0 kHz, 192 kbps, 2 ch (MVO)
Аудио 2: AC-3, 48.0 kHz, 448 kbps, 5.1 ch (VO)
Аудио 3: AC-3, 48.0 kHz, 448 kbps, 5.1 ch (Original)
Формат субтитров: softsub (SRT)
MediaInfo + x264 log
Код:
Код:
General
Unique ID                                : 164752597588165918391644000815261037835 (0x7BF2323455A98DE6FEA8EB3A352E350B)
Complete name                            : /home/kem/Video/Everything.Must.Go.2010.BDRip.x264.MVO.VO.Eng.mkv
Format                                   : Matroska
Format version                           : Version 2
File size                                : 2.18 GiB
Duration                                 : 1h 37mn
Overall bit rate                         : 3 215 Kbps
Encoded date                             : UTC 2012-08-08 21:52:01
Writing application                      : mkvmerge v5.7.0 ('The Whirlwind') built on Jul 12 2012 00:14:35
Writing library                          : libebml v1.2.2 + libmatroska v1.3.0

Video
ID                                       : 1
Format                                   : AVC
Format/Info                              : Advanced Video Codec
Format profile                           : High@L4.1
Format settings, CABAC                   : Yes
Format settings, ReFrames                : 12 frames
Codec ID                                 : V_MPEG4/ISO/AVC
Duration                                 : 1h 37mn
Bit rate                                 : 2 124 Kbps
Width                                    : 1 152 pixels
Height                                   : 480 pixels
Display aspect ratio                     : 2.40:1
Frame rate                               : 23.976 fps
Color space                              : YUV
Chroma subsampling                       : 4:2:0
Bit depth                                : 8 bits
Scan type                                : Progressive
Bits/(Pixel*Frame)                       : 0.160
Stream size                              : 1.40 GiB (64%)
Writing library                          : x264 core 125
Encoding settings                        : cabac=1 / ref=12 / deblock=1:-3:-3 / analyse=0x3:0x133 / me=umh / subme=11 / psy=1 / psy_rd=1.00:0.00 / mixed_ref=1 / me_range=32 / chroma_me=1 / trellis=2 / 8x8dct=1 / cqm=0 / deadzone=21,11 / fast_pskip=0 / chroma_qp_offset=-4 / threads=6 / lookahead_threads=1 / sliced_threads=0 / nr=0 / decimate=1 / interlaced=0 / bluray_compat=0 / constrained_intra=0 / bframes=7 / b_pyramid=2 / b_adapt=2 / b_bias=0 / direct=3 / weightb=1 / open_gop=0 / weightp=2 / keyint=250 / keyint_min=23 / scenecut=40 / intra_refresh=0 / rc_lookahead=60 / rc=2pass / mbtree=1 / bitrate=2124 / ratetol=1.0 / qcomp=0.70 / qpmin=0 / qpmax=69 / qpstep=4 / cplxblur=20.0 / qblur=0.5 / ip_ratio=1.40 / aq=1:1.00
Default                                  : Yes
Forced                                   : No

Audio #1
ID                                       : 2
Format                                   : AC-3
Format/Info                              : Audio Coding 3
Mode extension                           : CM (complete main)
Format settings, Endianness              : Big
Codec ID                                 : A_AC3
Duration                                 : 1h 37mn
Bit rate mode                            : Constant
Bit rate                                 : 192 Kbps
Channel(s)                               : 2 channels
Channel positions                        : Front: L R
Sampling rate                            : 48.0 KHz
Bit depth                                : 16 bits
Compression mode                         : Lossy
Stream size                              : 133 MiB (6%)
Title                                    : MVO
Language                                 : Russian
Default                                  : Yes
Forced                                   : No

Audio #2
ID                                       : 3
Format                                   : AC-3
Format/Info                              : Audio Coding 3
Mode extension                           : CM (complete main)
Format settings, Endianness              : Big
Codec ID                                 : A_AC3
Duration                                 : 1h 37mn
Bit rate mode                            : Constant
Bit rate                                 : 448 Kbps
Channel(s)                               : 6 channels
Channel positions                        : Front: L C R, Side: L R, LFE
Sampling rate                            : 48.0 KHz
Bit depth                                : 16 bits
Compression mode                         : Lossy
Stream size                              : 311 MiB (14%)
Title                                    : VO
Language                                 : Russian
Default                                  : No
Forced                                   : No

Audio #3
ID                                       : 4
Format                                   : AC-3
Format/Info                              : Audio Coding 3
Mode extension                           : CM (complete main)
Format settings, Endianness              : Big
Codec ID                                 : A_AC3
Duration                                 : 1h 37mn
Bit rate mode                            : Constant
Bit rate                                 : 448 Kbps
Channel(s)                               : 6 channels
Channel positions                        : Front: L C R, Side: L R, LFE
Sampling rate                            : 48.0 KHz
Bit depth                                : 16 bits
Compression mode                         : Lossy
Stream size                              : 311 MiB (14%)
Title                                    : Original
Language                                 : English
Default                                  : No
Forced                                   : No

Text #1
ID                                       : 5
Format                                   : UTF-8
Codec ID                                 : S_TEXT/UTF8
Codec ID/Info                            : UTF-8 Plain Text
Language                                 : Russian
Default                                  : No
Forced                                   : No

Text #2
ID                                       : 6
Format                                   : UTF-8
Codec ID                                 : S_TEXT/UTF8
Codec ID/Info                            : UTF-8 Plain Text
Language                                 : English
Default                                  : No
Forced                                   : No

Код:
Код:
Video stream: 2124.171 kbit/s  (265521 B/s)  size: 1546879648 bytes  5825.820 secs  139685 frames
x264 [info]: frame I:1252  Avg QP:15.34  size:108797
x264 [info]: frame P:27831 Avg QP:18.10  size: 25717
x264 [info]: frame B:110597 Avg QP:20.63  size:  6284
x264 [info]: consecutive B-frames:  1.5%  1.4%  4.8% 16.6% 19.1% 42.3%  9.9%  4.4%
x264 [info]: mb I  I16..4:  4.2% 75.0% 20.8%
x264 [info]: mb P  I16..4:  0.7%  4.5%  0.8%  P16..4: 34.4% 38.2% 13.6%  4.5%  0.6%    skip: 2.8%
x264 [info]: mb B  I16..4:  0.1%  0.5%  0.1%  B16..8: 36.7% 18.0%  2.6%  direct: 3.6%  skip:38.4%  L0:46.0% L1:43.1% BI:10.8%
x264 [info]: 8x8 transform intra:74.0% inter:55.7%
x264 [info]: direct mvs  spatial:98.6% temporal:1.4%
x264 [info]: coded y,uvDC,uvAC intra: 82.4% 92.1% 81.5% inter: 16.4% 18.8% 7.3%
x264 [info]: i16 v,h,dc,p: 54% 16%  4% 25%
x264 [info]: i8 v,h,dc,ddl,ddr,vr,hd,vl,hu: 10%  8%  8% 10% 14% 14% 12% 12% 13%
x264 [info]: i4 v,h,dc,ddl,ddr,vr,hd,vl,hu: 11%  8%  7%  9% 15% 14% 12% 11% 13%
x264 [info]: i8c dc,h,v,p: 49% 19% 16% 15%
x264 [info]: Weighted P-Frames: Y:1.4% UV:0.5%
x264 [info]: ref P L0: 42.5%  9.8% 17.6%  6.7%  5.7%  4.4%  4.0%  2.1%  2.0%  1.7%  1.7%  1.6%  0.1%  0.0%
x264 [info]: ref B L0: 65.6% 13.0%  7.4%  3.7%  2.8%  2.4%  2.0%  1.1%  1.0%  0.6%  0.3%
x264 [info]: ref B L1: 89.7% 10.3%
x264 [info]: kb/s:2124.17

Скриншот c названием фильма
Скриншоты


загрузка...
Правила, инструкции, FAQ!!!
Торрент  Добавлен [13 фев 2014, 06:34] Скачать торрент
Скачать торрент
[ Размер 22.3 КБ / Просмотров 6 ]

Статус  
 
Размер  2.18 ГБ
Приватный: Нет (DHT включён)
.torrent скачан  0
Как залить торрент? | Как скачать Torrent? | Как смотреть и слушать онлайн?  


     Отправить личное сообщение
   
Страница 1 из 1
Показать сообщения за:  Поле сортировки  
Начать новую тему Ответить на тему

   Похожие торренты   Автор   Ответы   Просмотры   Последнее сообщение 
В этой теме нет новых непрочитанных сообщений. Скачать торрент Детки в порядке / The Kids Are All Right (Лиза Холоденко / Lisa Cholodenko) [2010, США, драма, комедия, BDRip] MVO + Original + Sub (Rus)

в форуме Драмы, Мелодрамы, Размер: 2.18 ГБ, Здоровье: 0%

Anonymous

0
0|0

31
0

11 фев 2014, 09:15

Anonymous Перейти к последнему сообщению

В этой теме нет новых непрочитанных сообщений. Скачать торрент Четыре льва / Four Lions (Кристофер Моррис / Christopher Morris) [2010, Великобритания, Драма, комедия, BDRip] MVO AVO Сербин Original Eng

в форуме Драмы, Мелодрамы, Размер: 2.18 ГБ, Здоровье: 0%

Anonymous

0
0|0

81
0

14 фев 2014, 07:46

Anonymous Перейти к последнему сообщению

В этой теме нет новых непрочитанных сообщений. Скачать торрент Доброе утро / Morning Glory (Роджер Мичелл / Roger Michell) [2010, драма, мелодрама, комедия, BDRip] Dub + Original + Subs (Rus, RusF, Eng)

в форуме Драмы, Мелодрамы, Размер: 2.19 ГБ, Здоровье: 0%

Anonymous

0
0|0

38
0

14 фев 2014, 07:45

Anonymous Перейти к последнему сообщению

В этой теме нет новых непрочитанных сообщений. Скачать торрент Август Раш / August Rush (Кирстен Шеридан / Kirsten Sheridan) [2007 г., мелодрама, драма, музыка, BDRip-AVC] MVO + original + subs (rus, eng)

в форуме 720p | 1080p, Размер: 1.63 ГБ, Здоровье: 100%

Anonymous

0
25|8

32
0

11 фев 2014, 09:17

Anonymous Перейти к последнему сообщению

В этой теме нет новых непрочитанных сообщений. Скачать торрент Проверен Гонка / Rush (Рон Ховард / Ron Howard) [2013, США, Германия, Великобритания, спорт, драма, биография, BDRip, 480p] Dub [LINE] + Original, Subs (Rus + Eng)

в форуме Фильмы для iPod, iPhone, iPad, Размер: 1.51 ГБ, Здоровье: 100%

Гость

0
24|7

37
0

18 май 2015, 10:37

Гость Перейти к последнему сообщению



Сейчас этот форум просматривают: нет зарегистрированных пользователей и гости: 1


Вы не можете начинать темы
Вы не можете отвечать на сообщения
Вы не можете редактировать свои сообщения
Вы не можете удалять свои сообщения
Вы не можете добавлять вложения

Перейти:  

!ВНИМАНИЕ!
 Ресурс не предоставляет электронные версии произведений, а занимается лишь коллекционированием и каталогизацией ссылок, присылаемых и публикуемых на форуме нашими читателями. Если вы являетесь правообладателем какого-либо представленного материала и не желаете чтобы ссылка на него находилась в нашем каталоге, свяжитесь с нами и мы незамедлительно удалим её. Файлы для обмена на трекере предоставлены пользователями сайта, и администрация не несёт ответственности за их содержание. Просьба не заливать файлы, защищенные авторскими правами, а также файлы нелегального содержания!