На всех торрентах на трекере установлена скидка на скачивание в размере 100 процентов(а).
 Возможность скачивания торрента НЕ зависит от ограничений при низком ратио, низком аплоаде, требуемом ратио или требуемом аплоаде.


Начать новую тему Ответить на тему
Статистика раздачи
Размер: 1.45 ГБ | Добавлен: 13 фев 2014, 06:33 | Скачали: 0
Сидеров: 10  [0 байт/сек]    Личеров: 3  [0 байт/сек]
Пред. тема | След. тема 

Автор
Сообщение

СообщениеДобавлено: 13 фев 2014, 06:33 

Обитель зла 4: Жизнь после смерти / Resident Evil: Afterlife

Страна: Германия, Франция, Великобритания
Жанр: зомби-экшн
Год выпуска: 2010
Продолжительность: 1:36:52

Перевод: Профессиональный (дублированный)
Cубтитры: русские (Forced), русские, английские
Оригинальная аудиодорожка: английский

Режиссер: Пол У. С. Андерсон / Paul W.S. Anderson

В ролях: Милла Йовович (Alice), Эли Лартер (Claire Redfield), Вентворт Миллер (Chris Redfield), Ким Коутс (Bennett), Шоун Робертс (Albert Wesker), Серджо Перис-Менчета (Angel), Спенсер Лок (K-Mart), Борис Коджо (Luther), Сиенна Гиллори (Jill Valentine), Кейси Барнфилд (Crystal), Норман Енг (Kim Yong), Фульвио Чечере (Wendell)

Описание: Элис продолжает свой путь в мире, поражённом вирусной инфекцией, превращающей людей в нежить. Героиня ищет оставшихся в живых, чтобы вывести их в безопасное место. Её смертельная битва с корпорацией Амбрелла выходит на новый уровень...



CЭМПЛ

Качество видео: HDRip-AVC(Исх. BDRip1080)
Формат видео: MKV

Видео: 1024x432 (2,35:1), 23,976 fps, x264, 1380 kbps
Аудио: 48 kHz, AC-3, 5.1 ch, 384 kbps RUS
Аудио: 48 kHz, AC-3, 5.1 ch, 384 kbps ENG
Формат субтитров: softsub (SRT)

MediaInfo
General
Complete name : J:\Obitel zla-4.chopper887.mkv
Format : Matroska
File size : 1.47 GiB
Duration : 1h 40mn
Overall bit rate : 2 078 Kbps
Movie name : Obitel zla-4.chopper887
Encoded date : UTC 2010-11-27 15:10:27
Writing application : mkvmerge v3.0.0 ('Hang up your Hang-Ups') built on Dec 12 2009 15:20:35
Writing library : libebml v0.7.9 + libmatroska v0.8.1

Video
ID : 1
Format : AVC
Format/Info : Advanced Video Codec
Format profile : High@L4.1
Format settings, CABAC : Yes
Format settings, ReFrames : 10 frames
Muxing mode : Container profile=Unknown@4.1
Codec ID : V_MPEG4/ISO/AVC
Duration : 1h 40mn
Bit rate : 1 269 Kbps
Nominal bit rate : 1 380 Kbps
Width : 1 024 pixels
Height : 432 pixels
Display aspect ratio : 2.35:1
Frame rate : 23.976 fps
Resolution : 24 bits
Colorimetry : 4:2:0
Scan type : Progressive
Bits/(Pixel*Frame) : 0.120
Stream size : 916 MiB (61%)
Title : Obitel zla-4.chopper887
Writing library : x264 core 107 r1772 c9dad9e
Encoding settings : cabac=1 / ref=10 / deblock=1:-2:-1 / analyse=0x3:0x133 / me=umh / subme=9 / psy=1 / psy_rd=1.00:0.10 / mixed_ref=0 / me_range=32 / chroma_me=1 / trellis=2 / 8x8dct=1 / cqm=0 / deadzone=21,11 / fast_pskip=0 / chroma_qp_offset=-3 / threads=3 / sliced_threads=0 / nr=0 / decimate=1 / interlaced=0 / constrained_intra=0 / bframes=9 / b_pyramid=2 / b_adapt=2 / b_bias=0 / direct=3 / weightb=1 / open_gop=0 / weightp=2 / keyint=250 / keyint_min=23 / scenecut=40 / intra_refresh=0 / rc_lookahead=80 / rc=2pass / mbtree=1 / bitrate=1380 / ratetol=1.0 / qcomp=0.60 / qpmin=10 / qpmax=51 / qpstep=4 / cplxblur=20.0 / qblur=0.5 / ip_ratio=1.40 / aq=1:1.00
Language : English

Audio #1
ID : 2
Format : AC-3
Format/Info : Audio Coding 3
Codec ID : A_AC3
Duration : 1h 40mn
Bit rate mode : Constant
Bit rate : 384 Kbps
Channel(s) : 6 channels
Channel positions : Front: L C R, Surround: L R, LFE
Sampling rate : 48.0 KHz
Stream size : 277 MiB (18%)
Title : Дубляж

Audio #2
ID : 3
Format : AC-3
Format/Info : Audio Coding 3
Codec ID : A_AC3
Duration : 1h 40mn
Bit rate mode : Constant
Bit rate : 384 Kbps
Channel(s) : 6 channels
Channel positions : Front: L C R, Surround: L R, LFE
Sampling rate : 48.0 KHz
Stream size : 277 MiB (18%)
Title : Английский

Text #1
ID : 4
Format : UTF-8
Codec ID : S_TEXT/UTF8
Codec ID/Info : UTF-8 Plain Text
Title : Русские

Text #2
ID : 5
Format : UTF-8
Codec ID : S_TEXT/UTF8
Codec ID/Info : UTF-8 Plain Text
Title : Английские

Text #3
ID : 6
Format : UTF-8
Codec ID : S_TEXT/UTF8
Codec ID/Info : UTF-8 Plain Text
Title : Русские- надписи
Скриншоты

загрузка...
Правила, инструкции, FAQ!!!
Торрент  Добавлен [13 фев 2014, 06:33] Скачать торрент
Скачать торрент
[ Размер 15.03 КБ / Просмотров 6 ]

Статус  
 
Размер  1.45 ГБ
Приватный: Нет (DHT включён)
.torrent скачан  0
Как залить торрент? | Как скачать Torrent? | Как смотреть и слушать онлайн?  


     Отправить личное сообщение
   
Страница 1 из 1
Показать сообщения за:  Поле сортировки  
Начать новую тему Ответить на тему

   Похожие торренты   Автор   Ответы   Просмотры   Последнее сообщение 
В этой теме нет новых непрочитанных сообщений. Скачать торрент Обитель зла 2: Апокалипсис / Resident Evil 2 / Resident Evil: Nemesis / Resident Evil: Apocalypse (Александр Уитт / Alexander Witt) [2004, зомби-экшн, BDRip] [театральная версия / theatrical cut] Dub

в форуме Фантастика, Фэнтези, Размер: 1.46 ГБ, Здоровье: 100%

Anonymous

0
56|19

77
0

22 апр 2014, 11:47

Anonymous Перейти к последнему сообщению

В этой теме нет новых непрочитанных сообщений. Скачать торрент Проверен [iPad] Отель «Гранд Будапешт» / The Grand Budapest Hotel (Уэс Андерсон / Wes Anderson ) [2014, Великобритания, Германия, комедия, детектив, приключения, криминал, BDRip, SD (576p)] DUB + Original + sub (rus, eng)

в форуме Фильмы для iPod, iPhone, iPad, Размер: 1.76 ГБ, Здоровье: 100%

Гость

0
61|19

105
2

11 май 2015, 01:25

Гость Перейти к последнему сообщению

В этой теме нет новых непрочитанных сообщений. Скачать торрент Проверен [VIDEO] Отель «Гранд Будапешт» / The Grand Budapest Hotel (Уэс Андерсон / Wes Anderson) [2014г, Великобритания, Германия, комедия, детектив, приключения, криминал, HDRip][MP4, 640x] Dub

в форуме Видео для смартфонов и КПК, Размер: 864.44 МБ, Здоровье: 100%

Anonymous

0
56|19

99
0

02 авг 2014, 16:54

Anonymous Перейти к последнему сообщению

В этой теме нет новых непрочитанных сообщений. Скачать торрент Обитель зла 3 / Resident Evil: Extinction (Russell Mulcahy) [2007 г., ужасы, боевик, HDRip, AVC]

в форуме 720p | 1080p, Размер: 1.41 ГБ, Здоровье: 100%

Anonymous

0
10|3

39
0

13 фев 2014, 11:37

Anonymous Перейти к последнему сообщению

В этой теме нет новых непрочитанных сообщений. Скачать торрент Призрак / The Ghost Writer (Роман Полански / Roman Polanski) [2010, Германия, Франция, Великобритания, триллер, детектив, драма, BDRip-AVC] Dub + Original (eng) + Subs (rus, eng)

в форуме 720p | 1080p, Размер: 2.18 ГБ, Здоровье: 100%

Anonymous

0
12|4

103
0

06 фев 2014, 11:44

Anonymous Перейти к последнему сообщению



Сейчас этот форум просматривают: нет зарегистрированных пользователей и гости: 1


Вы не можете начинать темы
Вы не можете отвечать на сообщения
Вы не можете редактировать свои сообщения
Вы не можете удалять свои сообщения
Вы не можете добавлять вложения

Перейти:  

!ВНИМАНИЕ!
 Ресурс не предоставляет электронные версии произведений, а занимается лишь коллекционированием и каталогизацией ссылок, присылаемых и публикуемых на форуме нашими читателями. Если вы являетесь правообладателем какого-либо представленного материала и не желаете чтобы ссылка на него находилась в нашем каталоге, свяжитесь с нами и мы незамедлительно удалим её. Файлы для обмена на трекере предоставлены пользователями сайта, и администрация не несёт ответственности за их содержание. Просьба не заливать файлы, защищенные авторскими правами, а также файлы нелегального содержания!