На всех торрентах на трекере установлена скидка на скачивание в размере 100 процентов(а).
 Возможность скачивания торрента НЕ зависит от ограничений при низком ратио, низком аплоаде, требуемом ратио или требуемом аплоаде.


Начать новую тему Ответить на тему
Статистика раздачи
Размер: 2.53 ГБ | Добавлен: 12 фев 2014, 22:58 | Скачали: 0
Сидеров: 0  [0 байт/сек]    Личеров: 0  [0 байт/сек]
Пред. тема | След. тема 

Автор
Сообщение

СообщениеДобавлено: 12 фев 2014, 22:58 

Название: Старые ворчуны разбушевались
Оригинальное название: Grumpier Old Men
Год выхода: 1995
Жанр: Комедия, мелодрама
Режиссер: Ховард Дойч

В ролях: Уолтер Мэттау, Джек Леммон, Софи Лорен, Энн-Маргрет, Бёрджесс Мередит, Дэрил Ханна, Кевин Поллак, Кэти Сагона, Энн Морган Гилберт, Джеймс Энделин, Маркус Клемп, Макс Райт, Шерил Хокер, Вейн А. Эвенсон, Эллисон Ливайн, Джон Патрик Мартин, Адам Уорд, Райан Уолдох, Джеймс Кэда, Жаклин Росс, Кайл Кристоферсон, Джеффри Л. Смит, Херальдо Ривера

О фильме:Лето пришло в городок Вадасу в Миннесоте и все растаяло. Растаял лед на реке, растаяла даже многолетняя воина между соседями Джоном Густафсоном и Максом Голдманом. После того, как Джон женился на Ариэль, Макс остался один. Пока в городке не появилась жизнерадостная особа. Она собирается превратить их любимый магазинчик, где они всю жизнь покупали всякие наживки и приманки для рыбной ловли, в итальянский ресторан. Приятели объявили ей войну и начали планомерную кампанию всяческих интриг и сплетен, которые быстро охватили весь городок. Но они не учли характера Марии, которая вовсе не собирается сдаваться без боя и готовит сокрушительное «контрнаступление».



Страна: США
Студия: Lancaster Gate, Warner Bros. Pictures
Продолжительность: 01:41:02
Перевод: Дублированный + авторский одноголосый (П. Санаев) + оригинал


Кодек: MPEG-4 AVC
Качество: BDRip-AVC
Видео: 2500 Кбит/с, 1024х576, 23.976 кадр/с
Звук:
Аудио #1: Русский (AC3, 2 ch, 192 Кбит/с) / Дублированный (Варус-видео)
Аудио #2: Русский (AC3, 6 ch, 448 Кбит/с) / Авторский одноголосый (П. Санаев)
Аудио #3: Английский (AC3, 6 ch, 448 Кбит/с)
Субтитры: Русские, английские

Семпл

Общее
Уникальный идентификатор : 212201536327243047363986083368139445567 (0x9FA487809516755BB33BE797B20B553F)
Полное имя : F:3Films FРелизыStarue.vorchunu.2.1995.x264.BDRip.AVC.MediaClub.mkv
Формат : Matroska
Версия формата : Version 4 / Version 2
Размер файла : 2,53 Гбайт
Продолжительность : 1 ч. 41 м.
Общий поток : 3587 Кбит/сек
Название фильма : -= MediaClub =- rip by Lefevr
Дата кодирования : UTC 2014-02-10 17:22:50
Программа кодирования : mkvmerge v6.6.0 ('The Edge Of The In Between') built on Dec 1 2013 17:55:00
Библиотека кодирования : libebml v1.3.0 + libmatroska v1.4.1

Видео
Идентификатор : 1
Формат : AVC
Формат/Информация : Advanced Video Codec
Профиль формата : High@L4.1
Параметр CABAC формата : Да
Параметр ReFrames формата : 9 кадров
Идентификатор кодека : V_MPEG4/ISO/AVC
Продолжительность : 1 ч. 41 м.
Битрейт : 2500 Кбит/сек
Ширина : 1024 пикселя
Высота : 576 пикселей
Соотношение сторон : 16:9
Режим частоты кадров : Постоянный
Частота кадров : 23,976 кадра/сек
Цветовое пространство : YUV
Субдискретизация насыщенности : 4:2:0
Битовая глубина : 8 бит
Тип развёртки : Прогрессивная
Бит/(Пиксели*Кадры) : 0.177
Размер потока : 1,71 Гбайт (68%)
Заголовок : Starue.vorchunu.2.1995.x264.BDRip.AVC.MediaClub
Библиотека кодирования : x264 core 130 r2273 b3065e6
Настройки программы : cabac=1 / ref=9 / deblock=1:-2:-2 / analyse=0x3:0x133 / me=umh / subme=11 / psy=1 / psy_rd=1.00:0.20 / mixed_ref=1 / me_range=32 / chroma_me=1 / trellis=2 / 8x8dct=1 / cqm=0 / deadzone=21,11 / fast_pskip=0 / chroma_qp_offset=-3 / threads=6 / lookahead_threads=1 / sliced_threads=0 / nr=0 / decimate=0 / interlaced=0 / bluray_compat=0 / constrained_intra=0 / bframes=8 / b_pyramid=2 / b_adapt=2 / b_bias=0 / direct=3 / weightb=1 / open_gop=0 / weightp=2 / keyint=240 / keyint_min=23 / scenecut=40 / intra_refresh=0 / rc=2pass / mbtree=0 / bitrate=2500 / ratetol=1.0 / qcomp=0.60 / qpmin=0 / qpmax=69 / qpstep=4 / cplxblur=20.0 / qblur=0.5 / ip_ratio=1.40 / pb_ratio=1.30 / aq=1:1.00
Язык : English
Default : Да
Forced : Да

Аудио #1
Идентификатор : 2
Формат : AC-3
Формат/Информация : Audio Coding 3
Расширение режима : CM (complete main)
Параметр Endianness формата : Big
Идентификатор кодека : A_AC3
Продолжительность : 1 ч. 41 м.
Вид битрейта : Постоянный
Битрейт : 192 Кбит/сек
Каналы : 2 канала
Расположение каналов : Front: L R
Частота : 48,0 КГц
Битовая глубина : 16 бит
Метод сжатия : С потерями
Размер потока : 139 Мбайт (5%)
Заголовок : TRACK_01_DUB_RUS
Язык : Russian
Default : Да
Forced : Да

Аудио #2
Идентификатор : 3
Формат : AC-3
Формат/Информация : Audio Coding 3
Расширение режима : CM (complete main)
Параметр Endianness формата : Big
Идентификатор кодека : A_AC3
Продолжительность : 1 ч. 41 м.
Вид битрейта : Постоянный
Битрейт : 448 Кбит/сек
Каналы : 6 каналов
Расположение каналов : Front: L C R, Side: L R, LFE
Частота : 48,0 КГц
Битовая глубина : 16 бит
Метод сжатия : С потерями
Размер потока : 324 Мбайт (12%)
Заголовок : TRACK_02_AVO_RUS_Sanaev
Язык : Russian
Default : Нет
Forced : Нет

Аудио #3
Идентификатор : 4
Формат : AC-3
Формат/Информация : Audio Coding 3
Расширение режима : CM (complete main)
Параметр Endianness формата : Big
Идентификатор кодека : A_AC3
Продолжительность : 1 ч. 41 м.
Вид битрейта : Постоянный
Битрейт : 448 Кбит/сек
Каналы : 6 каналов
Расположение каналов : Front: L C R, Side: L R, LFE
Частота : 48,0 КГц
Битовая глубина : 16 бит
Метод сжатия : С потерями
Размер потока : 324 Мбайт (12%)
Заголовок : TRACK_03_ORIGINAL_ENG
Язык : English
Default : Нет
Forced : Нет

Текст #1
Идентификатор : 5
Формат : UTF-8
Идентификатор кодека : S_TEXT/UTF8
Идентификатор кодека/Информация : UTF-8 Plain Text
Заголовок : TEXT_01_SUB_RUS
Язык : Russian
Default : Нет
Forced : Нет

Текст #2
Идентификатор : 6
Формат : UTF-8
Идентификатор кодека : S_TEXT/UTF8
Идентификатор кодека/Информация : UTF-8 Plain Text
Заголовок : TEXT_02_SUB_ENG
Язык : English
Default : Нет
Forced : Нет

Меню
00:00:00.000 : en:Chapter 01
00:01:49.651 : en:Chapter 02
00:07:14.767 : en:Chapter 03
00:10:40.473 : en:Chapter 04
00:15:00.691 : en:Chapter 05
00:19:53.150 : en:Chapter 06
00:21:44.636 : en:Chapter 07
00:24:36.057 : en:Chapter 08
00:28:05.600 : en:Chapter 09
00:33:41.561 : en:Chapter 10
00:35:22.495 : en:Chapter 11
00:39:18.564 : en:Chapter 12
00:42:07.525 : en:Chapter 13
00:43:20.639 : en:Chapter 14
00:46:42.382 : en:Chapter 15
00:48:42.169 : en:Chapter 16
00:53:09.311 : en:Chapter 17
00:56:13.745 : en:Chapter 18
00:57:28.319 : en:Chapter 19
01:00:08.813 : en:Chapter 20
01:03:59.293 : en:Chapter 21
01:05:53.324 : en:Chapter 22
01:11:16.897 : en:Chapter 23
01:14:39.391 : en:Chapter 24
01:16:03.684 : en:Chapter 25
01:18:47.180 : en:Chapter 26
01:21:31.803 : en:Chapter 27
01:24:34.986 : en:Chapter 28
01:26:30.101 : en:Chapter 29
01:29:31.616 : en:Chapter 30
01:33:23.055 : en:Chapter 31
01:37:19.792 : en:Chapter 32
01:38:54.428 : en:Chapter 33
01:43:28.202 : en:Chapter 34

• Сохранены оригинальные чаптеры как на Blu-ray.
x264 log
x264 [info]: frame I:1530 Avg QP:16.51 size: 90753
x264 [info]: frame P:32714 Avg QP:19.65 size: 27142
x264 [info]: frame B:111101 Avg QP:21.69 size: 7796

• За помощь в подготовке релиза спасибо Константину - Painter и Виталию - neni
• За постер спасибо Инне - cookies от Media-Art-Club
• За исходник спасибо Voland_




Релиз от: | Автор рипа:
загрузка...
Правила, инструкции, FAQ!!!
Торрент  Добавлен [12 фев 2014, 22:58] Скачать торрент
Скачать торрент
[ Размер 13.24 КБ / Просмотров 8 ]

Статус  
 
Размер  2.53 ГБ
Приватный: Нет (DHT включён)
.torrent скачан  0
Как залить торрент? | Как скачать Torrent? | Как смотреть и слушать онлайн?  


     Отправить личное сообщение
   
Страница 1 из 1
Показать сообщения за:  Поле сортировки  
Начать новую тему Ответить на тему

   Похожие торренты   Автор   Ответы   Просмотры   Последнее сообщение 
В этой теме нет новых непрочитанных сообщений. Скачать торрент Проверен V.A. - Старые Песни О Главном - 1, 2, 3, Постскриптум (1995 - 2000) [APE|Lossless]<Pop>

в форуме Отечественная музыка, Размер: 1.95 ГБ, Здоровье: 100%

Anonymous

0
6|2

57
0

21 дек 2014, 02:04

Anonymous Перейти к последнему сообщению

В этой теме нет новых непрочитанных сообщений. Скачать торрент Проверен (Шансон) Сергей Матвиенко - Старые дворы - 1995, MP3, 256 kbps

в форуме Шансон|Авторская песня, Размер: 51.25 МБ, Здоровье: 0%

Anonymous

0
0|0

0
0

05 ноя 2016, 16:38

Anonymous Перейти к последнему сообщению

В этой теме нет новых непрочитанных сообщений. Скачать торрент Проверен Сборник - Старые Песни В Новом Формате (2016) MP3

в форуме Отечественная музыка (сборники), Размер: 1016.75 МБ, Здоровье: 100%

Гость

0
112|2

517
31

29 май 2016, 22:43

Гость Перейти к последнему сообщению

В этой теме нет новых непрочитанных сообщений. Скачать торрент Проверен (Rock) VA - Старые Хиты с Катушек - 2007, MP3, 192 kbps

в форуме Русский Рок, Размер: 184.38 МБ, Здоровье: 100%

Anonymous

0
5|1

6
0

22 авг 2016, 11:53

Anonymous Перейти к последнему сообщению

В этой теме нет новых непрочитанных сообщений. Скачать торрент Проверен Чудаков А. П. - Ложится мгла на старые ступени [2012, FB2/EPUB/PDF, RUS]

в форуме Русская литература, Размер: 7.44 МБ, Здоровье: 0%

Anonymous

0
0|0

0
0

08 сен 2016, 17:46

Anonymous Перейти к последнему сообщению



Сейчас этот форум просматривают: нет зарегистрированных пользователей и гости: 1


Вы не можете начинать темы
Вы не можете отвечать на сообщения
Вы не можете редактировать свои сообщения
Вы не можете удалять свои сообщения
Вы не можете добавлять вложения

Перейти:  

!ВНИМАНИЕ!
 Ресурс не предоставляет электронные версии произведений, а занимается лишь коллекционированием и каталогизацией ссылок, присылаемых и публикуемых на форуме нашими читателями. Если вы являетесь правообладателем какого-либо представленного материала и не желаете чтобы ссылка на него находилась в нашем каталоге, свяжитесь с нами и мы незамедлительно удалим её. Файлы для обмена на трекере предоставлены пользователями сайта, и администрация не несёт ответственности за их содержание. Просьба не заливать файлы, защищенные авторскими правами, а также файлы нелегального содержания!