На всех торрентах на трекере установлена скидка на скачивание в размере 100 процентов(а).
 Возможность скачивания торрента НЕ зависит от ограничений при низком ратио, низком аплоаде, требуемом ратио или требуемом аплоаде.


Начать новую тему Ответить на тему
Статистика раздачи
Размер: 3.4 ГБ | Добавлен: 12 фев 2014, 22:38 | Скачали: 0
Сидеров: 0  [0 байт/сек]    Личеров: 0  [0 байт/сек]
Пред. тема | След. тема 

Автор
Сообщение

СообщениеДобавлено: 12 фев 2014, 22:38 

Название: Бесплатные образцы
Оригинальное название: Free Samples / Searching for Love
Год выхода: 2012
Жанр: комедия, драма
Режиссер: Джей Гэммилл

В ролях: Джесс Вейкслер, Джесси Айзенберг, Джейсон Риттер, Хэлли Фейффер, Типпи Хедрен, Кейр О’Доннелл, Джоселин Донахью, Уитни Эйбл, Эбен Костбар, Джордан Дэвис

О фильме:
Джиллиан – симпатичная девушка, которая оказалась в неприятном положении. Из юридической школы ее отчислили, жить негде, и приходится пользоваться гостеприимством подруги, да еще и работы нет. Впрочем, однажды Джиллиан представляется возможность отблагодарить подругу и одновременно с этим поработать – ей приходится встать за прилавок в фургончике, чтобы продавать мороженное и раздавать бесплатные образцы клиентам.

Эта работа, поначалу кажущаяся простой, на самом деле – сущий ад. Во-первых, Джиллиан приходится носить узкую футболку, в которой даже вдохнуть полной грудью не получается. Во-вторых, никаких перерывов на кофе, туалет и любой другой отдых ей не полагается. Ну а в-третьих, работая в фургончике, Джиллиан приходится иметь дело с целой толпой чудаковатых или пребывающих в дурном расположении духа клиентов. Кто-то из них с удовольствием цепляется к словам Джиллиан, кто-то хамит, а кто-то – явно проявляет недвусмысленое внимание, что тоже не особенно радует продавщицу.



Выпущено: США
Продолжительность: 01:19:41
Озвучивание: Профессиональное (многоголосое) [Студия «Азъ-Мастер»]


Формат: MKV
Качество: BDRip 720p [SONiDO]
Видео: 4376 kb/s, 1280x544
Аудио: Russian: AC3, 224 kb/s (2 ch) / English: DTS, 1510 kb/s (6 ch)
Субтитры: Russian [notabenoid], English
Дополнительно: Сохранены оригинальные чаптеры как на Blu-ray

Скачать: Сэмпл

Релиз группы:




Общее
Free.Samples.2012.Blu.Ray.720p.CINEMANIA.mkv
Формат : Matroska
Версия формата : Version 4 / Version 2
Размер файла : 3,40 Гбайт
Продолжительность : 1 ч. 19 м.
Общий поток : 6111 Кбит/сек
Название фильма : Release Group CINEMANIA
Дата кодирования : UTC 2014-02-12 13:28:07
Программа кодирования : mkvmerge v6.7.0 ('Back to the Ground') 64bit built on Jan 8 2014 15:10:52
Библиотека кодирования : libebml v1.3.0 + libmatroska v1.4.1

Видео
Идентификатор : 1
Формат : AVC
Формат/Информация : Advanced Video Codec
Профиль формата : High@L4.1
Параметр CABAC формата : Да
Параметр ReFrames формата : 5 кадров
Идентификатор кодека : V_MPEG4/ISO/AVC
Продолжительность : 1 ч. 19 м.
Битрейт : 4376 Кбит/сек
Ширина : 1280 пикселей
Высота : 544 пикселя
Соотношение сторон : 2,35:1
Режим частоты кадров : Постоянный
Частота кадров : 24,000 кадра/сек
Цветовое пространство : YUV
Субдискретизация насыщенности : 4:2:0
Битовая глубина : 8 бит
Тип развёртки : Прогрессивная
Бит/(Пиксели*Кадры) : 0.262
Размер потока : 2,37 Гбайт (70%)
Заголовок : Release Group CINEMANIA
Библиотека кодирования : x264 core 135 r2345 f0c1c53
Настройки программы : cabac=1 / ref=5 / deblock=1:0:0 / analyse=0x3:0x133 / me=umh / subme=7 / psy=1 / psy_rd=1.00:0.00 / mixed_ref=1 / me_range=16 / chroma_me=1 / trellis=1 / 8x8dct=1 / cqm=0 / deadzone=21,11 / fast_pskip=0 / chroma_qp_offset=-2 / threads=12 / lookahead_threads=2 / sliced_threads=0 / nr=0 / decimate=1 / interlaced=0 / bluray_compat=0 / constrained_intra=0 / bframes=3 / b_pyramid=2 / b_adapt=2 / b_bias=0 / direct=3 / weightb=1 / open_gop=0 / weightp=2 / keyint=250 / keyint_min=24 / scenecut=40 / intra_refresh=0 / rc_lookahead=50 / rc=2pass / mbtree=1 / bitrate=4376 / ratetol=1.0 / qcomp=0.60 / qpmin=0 / qpmax=69 / qpstep=4 / cplxblur=20.0 / qblur=0.5 / ip_ratio=1.40 / aq=1:1.00
Язык : English
Default : Да
Forced : Нет

Аудио #1
Идентификатор : 2
Формат : AC-3
Формат/Информация : Audio Coding 3
Расширение режима : CM (complete main)
Параметр Endianness формата : Big
Идентификатор кодека : A_AC3
Продолжительность : 1 ч. 19 м.
Вид битрейта : Постоянный
Битрейт : 224 Кбит/сек
Каналы : 2 канала
Расположение каналов : Front: L R
Частота : 48,0 КГц
Битовая глубина : 16 бит
Метод сжатия : С потерями
Размер потока : 128 Мбайт (4%)
Заголовок : Студия «Азъ-Мастер»
Язык : Russian
Default : Да
Forced : Да

Аудио #2
Идентификатор : 3
Формат : DTS
Формат/Информация : Digital Theater Systems
Режим : 16
Параметр Endianness формата : Big
Идентификатор кодека : A_DTS
Продолжительность : 1 ч. 19 м.
Вид битрейта : Постоянный
Битрейт : 1509 Кбит/сек
Каналы : 6 каналов
Расположение каналов : Front: L C R, Side: L R, LFE
Частота : 48,0 КГц
Битовая глубина : 24 бит
Метод сжатия : С потерями
Размер потока : 860 Мбайт (25%)
Язык : English
Default : Нет
Forced : Нет

Текст #1
Идентификатор : 4
Формат : UTF-8
Идентификатор кодека : S_TEXT/UTF8
Идентификатор кодека/Информация : UTF-8 Plain Text
Заголовок : notabenoid
Язык : Russian
Default : Нет
Forced : Нет

Текст #2
Идентификатор : 5
Формат : UTF-8
Идентификатор кодека : S_TEXT/UTF8
Идентификатор кодека/Информация : UTF-8 Plain Text
Язык : English
Default : Нет
Forced : Нет

Меню
00:00:00.000 : en:00:00:00.000
00:09:30.708 : en:00:09:30.708
00:17:10.667 : en:00:17:10.667
00:22:32.125 : en:00:22:32.125
00:32:02.958 : en:00:32:02.958
00:37:48.792 : en:00:37:48.792
00:45:16.375 : en:00:45:16.375
00:55:39.958 : en:00:55:39.958
01:01:04.542 : en:01:01:04.542
01:10:47.333 : en:01:10:47.333
01:16:55.583 : en:01:16:55.583

загрузка...
Правила, инструкции, FAQ!!!
Торрент  Добавлен [12 фев 2014, 22:38] Скачать торрент
Скачать торрент
[ Размер 17.57 КБ / Просмотров 2 ]

Статус  
 
Размер  3.4 ГБ
Приватный: Нет (DHT включён)
.torrent скачан  0
Как залить торрент? | Как скачать Torrent? | Как смотреть и слушать онлайн?  


     Отправить личное сообщение
   
Страница 1 из 1
Показать сообщения за:  Поле сортировки  
Начать новую тему Ответить на тему

   Похожие торренты   Автор   Ответы   Просмотры   Последнее сообщение 
В этой теме нет новых непрочитанных сообщений. Скачать торрент Проверен [TR24][OF] Boneshaker (Mars Williams, Paal Nilssen-Love, Kent Kessler) - Boneshaker - 2012 (Free Jazz, Free Improvisation)

в форуме Hi-Res stereo (Джаз и Блюз), Размер: 480.88 МБ, Здоровье: 100%

Anonymous

0
2|1

11
0

27 авг 2016, 15:02

Anonymous Перейти к последнему сообщению

В этой теме нет новых непрочитанных сообщений. Скачать торрент Застрял в любви / Stuck in Love (2012) BDRip 720p

в форуме 720p | 1080p, Размер: 2.49 ГБ, Здоровье: 100%

Anonymous

0
33|2

31
81

15 дек 2013, 22:38

Anonymous Перейти к последнему сообщению

В этой теме нет новых непрочитанных сообщений. Скачать торрент Проверен [TR24][OF] Paal Nilssen-Love / Felipe Zenicola / Eduardo Manso / Arthur Lacerda - Bota Fogo {QTV 004, Brazil} - 2014 (Free Improvisation, Avant-Garde, Free Jazz)

в форуме Hi-Res stereo (Джаз и Блюз), Размер: 298.06 МБ, Здоровье: 100%

Anonymous

0
2|1

9
0

27 авг 2016, 14:38

Anonymous Перейти к последнему сообщению

В этой теме нет новых непрочитанных сообщений. Скачать торрент Реальная любовь / Love Actually (2003) BDRip 720p

в форуме 720p | 1080p, Размер: 7.76 ГБ, Здоровье: 0%

Anonymous

0
0|0

38
0

20 янв 2014, 10:26

Anonymous Перейти к последнему сообщению

В этой теме нет новых непрочитанных сообщений. Скачать торрент Проверен [TR24][BL] The Thing (Mats Gustafsson, Ingebrigt Haker Flaten, Paal Nilssen-Love) with Agusti Fernandez presents "Mono" - Circol Malda, Barcelona (Spain) - 2012-03-19 - 2012 (Avant Garde, Free Jazz)

в форуме Hi-Res stereo (Джаз и Блюз), Размер: 1.34 ГБ, Здоровье: 100%

Anonymous

0
1|0

4
0

27 авг 2016, 14:48

Anonymous Перейти к последнему сообщению



Сейчас этот форум просматривают: нет зарегистрированных пользователей и гости: 1


Вы не можете начинать темы
Вы не можете отвечать на сообщения
Вы не можете редактировать свои сообщения
Вы не можете удалять свои сообщения
Вы не можете добавлять вложения

Перейти:  

!ВНИМАНИЕ!
 Ресурс не предоставляет электронные версии произведений, а занимается лишь коллекционированием и каталогизацией ссылок, присылаемых и публикуемых на форуме нашими читателями. Если вы являетесь правообладателем какого-либо представленного материала и не желаете чтобы ссылка на него находилась в нашем каталоге, свяжитесь с нами и мы незамедлительно удалим её. Файлы для обмена на трекере предоставлены пользователями сайта, и администрация не несёт ответственности за их содержание. Просьба не заливать файлы, защищенные авторскими правами, а также файлы нелегального содержания!