На всех торрентах на трекере установлена скидка на скачивание в размере 100 процентов(а).
 Возможность скачивания торрента НЕ зависит от ограничений при низком ратио, низком аплоаде, требуемом ратио или требуемом аплоаде.


Начать новую тему Ответить на тему
Статистика раздачи
Размер: 7.75 ГБ | Добавлен: 12 фев 2014, 15:26 | Скачали: 0
Сидеров: 0  [0 байт/сек]    Личеров: 0  [0 байт/сек]
Пред. тема | След. тема 

Автор
Сообщение

СообщениеДобавлено: 12 фев 2014, 15:26 

Название: Мальчики-налетчики
Оригинальное название: Takers
Год выпуска: 2010
Жанр: Боевик, драма, криминал
Выпущено: США, Grand Hustle Entertainment, Overbrook Entertainment, Rainforest Films, Screen Gems
Режиссер: Джон Льюсенхоп

В ролях: Пол Уокер, Хейден Кристенсен, Мэтт Диллон, Зои Салдана, Марианн Жан-Баптист, Крис Браун, Майкл Или, Идрис Эльба, Стив Харрис, Ти Ай

Перевод: Дублированный

Сюжет фильма
После серии блестяще спланированных ограблений банков команда взломщиков-профи, известных на всю Калифорнию, решается пойти на последнее, самое прибыльное дело. Такой шанс просто нельзя упустить, ведь на кону 25 миллионов долларов. Вот только есть один упертый полицейский, который готов на все, чтобы уничтожить банду мальчиков-налетчиков...




Качество: BDRip 1080p (исходник Blu-ray)
Видео: 1920x800, 9 729 Кбит/сек, 23.976 кадр/сек, AVC, x264, High@L4.1, 0.264 Бит/[Пиксели*Кадры], 2pass
Аудио 1: AC3 5.1 48 kHz 640 kbps - Дублированный
Чаптеры: есть
Субтитры: Russian,English
Продолжительность: 01:47:05

Автор Рипа: Сообщество:


Format : Matroska
Format version : Version 2
File size : 7.75 GiB
Duration : 1h 47mn
Overall bit rate : 10.4 Mbps
Movie name : Mal'chiki-naletchiki.(2014).BDRip.1080p.[denis100]
Encoded date : UTC 2014-02-12 08:41:06
Writing application : mkvmerge v5.8.0 ('No Sleep / Pillow') built on Sep 2 2012 15:37:04
Writing library : libebml v1.2.3 + libmatroska v1.3.0

Video
ID : 1
Format : AVC
Format/Info : Advanced Video Codec
Format profile : High@L4.1
Format settings, CABAC : Yes
Format settings, ReFrames : 5 frames
Codec ID : V_MPEG4/ISO/AVC
Duration : 1h 47mn
Bit rate : 9 729 Kbps
Width : 1 920 pixels
Height : 800 pixels
Display aspect ratio : 2.40:1
Frame rate mode : Constant
Frame rate : 23.976 fps
Color space : YUV
Chroma subsampling : 4:2:0
Bit depth : 8 bits
Scan type : Progressive
Bits/(Pixel*Frame) : 0.264
Stream size : 7.12 GiB (92%)
Title : Mal'chiki-naletchiki.(2014).BDRip.1080p.[denis100]
Writing library : x264 core 138 r2358 9e941d1
Encoding settings : cabac=1 / ref=5 / deblock=1:-3:-3 / analyse=0x3:0x133 / me=umh / subme=11 / psy=1 / psy_rd=1.00:0.10 / mixed_ref=1 / me_range=32 / chroma_me=1 / trellis=2 / 8x8dct=1 / cqm=0 / deadzone=21,11 / fast_pskip=0 / chroma_qp_offset=-3 / threads=6 / lookahead_threads=1 / sliced_threads=0 / nr=0 / decimate=0 / interlaced=0 / bluray_compat=0 / constrained_intra=0 / bframes=5 / b_pyramid=2 / b_adapt=2 / b_bias=0 / direct=3 / weightb=1 / open_gop=0 / weightp=2 / keyint=230 / keyint_min=22 / scenecut=40 / intra_refresh=0 / rc=2pass / mbtree=0 / bitrate=9729 / ratetol=1.0 / qcomp=0.60 / qpmin=0 / qpmax=69 / qpstep=4 / cplxblur=20.0 / qblur=0.5 / ip_ratio=1.40 / pb_ratio=1.30 / aq=1:1.00
Language : English
Default : Yes
Forced : No

Audio
ID : 2
Format : AC-3
Format/Info : Audio Coding 3
Mode extension : CM (complete main)
Format settings, Endianness : Big
Codec ID : A_AC3
Duration : 1h 47mn
Bit rate mode : Constant
Bit rate : 640 Kbps
Channel(s) : 6 channels
Channel positions : Front: L C R, Side: L R, LFE
Sampling rate : 48.0 KHz
Bit depth : 16 bits
Compression mode : Lossy
Stream size : 490 MiB (6%)
Title : Дублированый
Language : Russian
Default : Yes
Forced : No

Text #1
ID : 3
Format : UTF-8
Codec ID : S_TEXT/UTF8
Codec ID/Info : UTF-8 Plain Text
Title : Русские
Language : Russian
Default : No
Forced : No

Text #2
ID : 4
Format : UTF-8
Codec ID : S_TEXT/UTF8
Codec ID/Info : UTF-8 Plain Text
Title : English
Language : English
Default : Yes
Forced : No

Menu
00:00:00.000 : en:00:00:00.000
00:04:13.170 : en:00:04:13.170
00:14:54.560 : en:00:14:54.560
00:20:07.623 : en:00:20:07.623
00:24:03.484 : en:00:24:03.484
00:32:46.173 : en:00:32:46.173
00:35:20.076 : en:00:35:20.076
00:44:19.448 : en:00:44:19.448
00:52:50.250 : en:00:52:50.250
00:58:38.557 : en:00:58:38.557
01:02:27.702 : en:01:02:27.702
01:06:16.764 : en:01:06:16.764
01:13:14.682 : en:01:13:14.682
01:19:49.410 : en:01:19:49.410
01:23:39.389 : en:01:23:39.389
01:30:36.473 : en:01:30:36.473
x264 [info]: frame I:1382 Avg QP:17.03 size:172994
x264 [info]: frame P:46901 Avg QP:18.03 size: 85821
x264 [info]: frame B:105773 Avg QP:19.43 size: 32643
загрузка...
Правила, инструкции, FAQ!!!
Торрент  Добавлен [12 фев 2014, 15:26] Скачать торрент
Скачать торрент
[ Размер 39.29 КБ / Просмотров 4 ]

Статус  
 
Размер  7.75 ГБ
Приватный: Нет (DHT включён)
.torrent скачан  0
Как залить торрент? | Как скачать Torrent? | Как смотреть и слушать онлайн?  


     Отправить личное сообщение
   
Страница 1 из 1
Показать сообщения за:  Поле сортировки  
Начать новую тему Ответить на тему

   Похожие торренты   Автор   Ответы   Просмотры   Последнее сообщение 
В этой теме нет новых непрочитанных сообщений. Скачать торрент Мальчики-налетчики / Takers (Джон Льюсенхоп / John Luessenhop) [2010, США, боевик, триллер, криминал, HDRip] Dub

в форуме Боевики, Размер: 1.46 ГБ, Здоровье: 0%

Anonymous

0
0|0

69
0

07 фев 2014, 11:42

Anonymous Перейти к последнему сообщению

В этой теме нет новых непрочитанных сообщений. Скачать торрент Кандагар (2010) BDRip 1080p

в форуме 720p | 1080p, Размер: 4.36 ГБ, Здоровье: 0%

Anonymous

0
0|0

22
0

17 янв 2014, 15:40

Anonymous Перейти к последнему сообщению

В этой теме нет новых непрочитанных сообщений. Скачать торрент О чём говорят мужчины (2010) BDRip 1080p

в форуме 720p | 1080p, Размер: 4.37 ГБ, Здоровье: 0%

Anonymous

0
0|0

100
0

06 янв 2014, 23:14

Anonymous Перейти к последнему сообщению

В этой теме нет новых непрочитанных сообщений. Скачать торрент Проверен Центурион / Centurion (2010) BDRip 1080p | D, P, A

в форуме 720p | 1080p, Размер: 15.73 ГБ, Здоровье: 100%

Anonymous

0
22|18

46
74

04 май 2015, 20:17

Anonymous Перейти к последнему сообщению

В этой теме нет новых непрочитанных сообщений. Скачать торрент Проверен 14 клинков / Gam yee wai / 14 Blades (2010) BDRip 1080p | P1

в форуме 720p | 1080p, Размер: 11.82 ГБ, Здоровье: 100%

Гость

0
18|5

116
7

08 апр 2016, 19:29

Гость Перейти к последнему сообщению



Сейчас этот форум просматривают: нет зарегистрированных пользователей и гости: 1


Вы не можете начинать темы
Вы не можете отвечать на сообщения
Вы не можете редактировать свои сообщения
Вы не можете удалять свои сообщения
Вы не можете добавлять вложения

Перейти:  

!ВНИМАНИЕ!
 Ресурс не предоставляет электронные версии произведений, а занимается лишь коллекционированием и каталогизацией ссылок, присылаемых и публикуемых на форуме нашими читателями. Если вы являетесь правообладателем какого-либо представленного материала и не желаете чтобы ссылка на него находилась в нашем каталоге, свяжитесь с нами и мы незамедлительно удалим её. Файлы для обмена на трекере предоставлены пользователями сайта, и администрация не несёт ответственности за их содержание. Просьба не заливать файлы, защищенные авторскими правами, а также файлы нелегального содержания!