На всех торрентах на трекере установлена скидка на скачивание в размере 100 процентов(а).
 Возможность скачивания торрента НЕ зависит от ограничений при низком ратио, низком аплоаде, требуемом ратио или требуемом аплоаде.


Начать новую тему Ответить на тему
Статистика раздачи
Размер: 2.91 ГБ | Добавлен: 12 фев 2014, 08:15 | Скачали: 0
Сидеров: 34  [0 байт/сек]    Личеров: 11  [0 байт/сек]
Пред. тема | След. тема 

Автор
Сообщение

СообщениеДобавлено: 12 фев 2014, 08:15 

Ешь, молись, люби / Eat Pray Love / Театральная версия / Theatrical Cut
«Let Yourself Go This August»


Страна: США
Жанр: драма, мелодрама
Год выпуска: 2010
Продолжительность: 02:20:05
Перевод: Профессиональный (дублированный) | Лицензия
Cубтитры: Русские (форсированные на итал. речь), Английские
Оригинальная аудиодорожка: Английский
Режиссер: Райан Мерфи / Ryan Murphy
В ролях: Джулия Робертс / Julia Roberts, Хавьер Бардем / Javier Bardem, Билли Крудап / Billy Crudup, Виола Дэвис / Viola Davis, Майк О’Мэлли / Mike O'Malley, Эшли Эткинсон / Ashlie Atkinson, Джеймс Франко / James Franco, Ричард Дженкинс / Richard Jenkins, Софи Томпсон / Sophie Thompson, Лиза Робертс / Lisa Roberts Gillan
Описание:
Замужняя женщина Элизабет Гилберт в один прекрасный день понимает, что живёт совершенно не той жизнью, которой хотела. После болезненного развода она отправляется в путешествие по миру, которое поможет ей открыть новые горизонты и познать себя.


Качество видео: BDRip-AVC | исх. Eat.Pray.Love.TC.2010.BluRay.Rus.Ukr.Eng.HDCLUB
Формат видео: MKV
Видео: AVC; 1020 x 552 (1.85:1); 23,976 fps; 2078 kbps
Аудио №1: AC3 Dolby Digital; 48 KHz; 448 kbps; 3/2 (L,C,R,l,r) + LFE ch
Аудио №2: AC3 Dolby Digital; 48 KHz; 448 kbps; 3/2 (L,C,R,l,r) + LFE ch, ENG
Формат субтитров: softsub (SRT)
СЭМПЛ
Релиз:
MediaInfo/log
log
Код:
Код:
-[NoImage] raw [info]: 1020x552p 1:1 @ 24000/1001 fps (cfr)
-[NoImage] x264 [info]: using SAR=1/1
-[NoImage] x264 [info]: using cpu capabilities: MMX2 SSE2Fast SSSE3 FastShuffle SSE4.2
-[NoImage] x264 [info]: profile High, level 4.1
-[NoImage]
-[NoImage] x264 [info]: frame I:1964  Avg QP:18.57  size: 58672
-[NoImage] x264 [info]: frame P:40996 Avg QP:21.26  size: 19069
-[NoImage] x264 [info]: frame B:158568 Avg QP:21.86  size:  8108
-[NoImage] x264 [info]: consecutive B-frames:  1.7%  2.0%  4.2% 22.2% 18.8% 32.9%  7.3%  8.7%  1.5%  0.6%
-[NoImage] x264 [info]: mb I  I16..4:  9.3% 74.8% 15.9%
-[NoImage] x264 [info]: mb P  I16..4:  0.7%  6.3%  0.9%  P16..4: 33.9% 38.0% 10.4%  0.0%  0.0%    skip: 9.8%
-[NoImage] x264 [info]: mb B  I16..4:  0.0%  0.6%  0.1%  B16..8: 35.8% 18.4%  2.9%  direct: 4.3%  skip:37.9%  L0:41.0% L1:48.2% BI:10.8%
-[NoImage] x264 [info]: 8x8 transform intra:79.2% inter:62.4%
-[NoImage] x264 [info]: direct mvs  spatial:97.8% temporal:2.2%
-[NoImage] x264 [info]: coded y,uvDC,uvAC intra: 86.0% 81.6% 54.6% inter: 21.5% 13.7% 1.4%
-[NoImage] x264 [info]: i16 v,h,dc,p: 20% 17%  5% 58%
-[NoImage] x264 [info]: i8 v,h,dc,ddl,ddr,vr,hd,vl,hu: 10%  6%  5% 10% 15% 14% 14% 12% 12%
-[NoImage] x264 [info]: i4 v,h,dc,ddl,ddr,vr,hd,vl,hu: 11%  7%  4% 10% 16% 15% 14% 11% 13%
-[NoImage] x264 [info]: i8c dc,h,v,p: 36% 23% 19% 21%
-[NoImage] x264 [info]: Weighted P-Frames: Y:2.4% UV:1.2%
-[NoImage] x264 [info]: ref P L0: 50.9% 11.3% 18.9%  6.1%  5.2%  3.8%  3.6%  0.2%  0.0%
-[NoImage] x264 [info]: ref B L0: 78.3% 11.9%  5.3%  2.6%  1.3%  0.6%
-[NoImage] x264 [info]: ref B L1: 93.2%  6.8%
-[NoImage] x264 [info]: kb/s:2077.32

General
Unique ID : 191453792911306648835614072704929082996 (0x9008A8C624E72435947487D5ADBBAE74)
Complete name : I:\Other\Esh.Molis.Lyubi.2010.Theatrical.Cut.DUAL.BDRip-AVC.AC3.-HQ-ViDEO.mkv
Format : Matroska
Format version : Version 2
File size : 2.91 GiB
Duration : 2h 20mn
Overall bit rate : 2 975 Kbps
Movie name : Esh Molis Lyubi / 2010 / Theatrical Cut / Release by Vaippp / HQ-ViDEO
Encoded date : UTC 2011-08-26 04:26:11
Writing application : mkvmerge v4.9.1 ('Ich will') сборка от Jul 11 2011 23:53:15
Writing library : libebml v1.2.1 + libmatroska v1.1.1

Video
ID : 1
Format : AVC
Format/Info : Advanced Video Codec
Format profile : High@L4.1
Format settings, CABAC : Yes
Format settings, ReFrames : 7 frames
Codec ID : V_MPEG4/ISO/AVC
Duration : 2h 20mn
Bit rate : 2 078 Kbps
Width : 1 020 pixels
Height : 552 pixels
Display aspect ratio : 16:9
Frame rate : 23.976 fps
Color space : YUV
Chroma subsampling : 4:2:0
Bit depth : 8 bits
Scan type : Progressive
Bits/(Pixel*Frame) : 0.154
Stream size : 1.98 GiB (68%)
Title : BDRip 26/08/2011
Writing library : x264 core 116 r2057 0ba8a9c
Encoding settings : cabac=1 / ref=7 / deblock=1:-2:-2 / analyse=0x3:0x113 / me=umh / subme=11 / psy=1 / psy_rd=0.95:0.05 / mixed_ref=1 / me_range=32 / chroma_me=1 / trellis=2 / 8x8dct=1 / cqm=0 / deadzone=21,11 / fast_pskip=0 / chroma_qp_offset=-2 / threads=12 / sliced_threads=0 / nr=0 / decimate=1 / interlaced=0 / bluray_compat=0 / constrained_intra=0 / bframes=9 / b_pyramid=2 / b_adapt=2 / b_bias=0 / direct=3 / weightb=1 / open_gop=0 / weightp=2 / keyint=250 / keyint_min=23 / scenecut=40 / intra_refresh=0 / rc_lookahead=40 / rc=2pass / mbtree=0 / bitrate=2078 / ratetol=1.0 / qcomp=0.60 / qpmin=0 / qpmax=69 / qpstep=4 / cplxblur=20.0 / qblur=0.5 / vbv_maxrate=50000 / vbv_bufsize=62500 / nal_hrd=none / ip_ratio=1.40 / pb_ratio=1.20 / aq=2:0.90 / zones=192715,201527,q=35
Language : English
Matrix coefficients : BT.709-5, BT.1361, IEC 61966-2-4 709, SMPTE RP177

Audio #1
ID : 2
Format : AC-3
Format/Info : Audio Coding 3
Mode extension : CM (complete main)
Codec ID : A_AC3
Duration : 2h 20mn
Bit rate mode : Constant
Bit rate : 448 Kbps
Channel(s) : 6 channels
Channel positions : Front: L C R, Side: L R, LFE
Sampling rate : 48.0 KHz
Bit depth : 16 bits
Compression mode : Lossy
Stream size : 449 MiB (15%)
Title : DUB R5
Language : Russian

Audio #2
ID : 3
Format : AC-3
Format/Info : Audio Coding 3
Mode extension : CM (complete main)
Codec ID : A_AC3
Duration : 2h 20mn
Bit rate mode : Constant
Bit rate : 448 Kbps
Channel(s) : 6 channels
Channel positions : Front: L C R, Side: L R, LFE
Sampling rate : 48.0 KHz
Bit depth : 16 bits
Compression mode : Lossy
Stream size : 449 MiB (15%)
Title : Original
Language : English

Text #1
ID : 4
Format : UTF-8
Codec ID : S_TEXT/UTF8
Codec ID/Info : UTF-8 Plain Text
Title : Forced
Language : Russian

Text #2
ID : 5
Format : UTF-8
Codec ID : S_TEXT/UTF8
Codec ID/Info : UTF-8 Plain Text
Language : English

Menu
00:00:00.000 : en:00:00:00.000
00:10:37.846 : en:00:10:37.846
00:18:37.366 : en:00:18:37.366
00:28:38.156 : en:00:28:38.156
00:36:54.354 : en:00:36:54.354
00:43:20.565 : en:00:43:20.565
00:52:30.489 : en:00:52:30.489
00:58:28.256 : en:00:58:28.256
01:08:10.115 : en:01:08:10.115
01:13:46.868 : en:01:13:46.868
01:19:56.862 : en:01:19:56.862
01:32:58.852 : en:01:32:58.852
01:38:34.604 : en:01:38:34.604
01:47:10.745 : en:01:47:10.745
01:56:40.147 : en:01:56:40.147
02:07:20.912 : en:02:07:20.912

* Театральная версия - которая показывалась в кинотеатрах
загрузка...
Правила, инструкции, FAQ!!!
Торрент  Добавлен [12 фев 2014, 08:15] Скачать торрент
Скачать торрент
[ Размер 15.15 КБ / Просмотров 13 ]

Статус  
 
Размер  2.91 ГБ
Приватный: Нет (DHT включён)
.torrent скачан  0
Как залить торрент? | Как скачать Torrent? | Как смотреть и слушать онлайн?  


     Отправить личное сообщение
   
Страница 1 из 1
Показать сообщения за:  Поле сортировки  
Начать новую тему Ответить на тему

   Похожие торренты   Автор   Ответы   Просмотры   Последнее сообщение 
В этой теме нет новых непрочитанных сообщений. Скачать торрент Ешь, молись, люби / Eat Pray Love (Райан Мерфи / Ryan Murphy) [2010, США, драма, мелодрама, BDRip] [Theatrical Cut] Dub R5 + Sub rus forced

в форуме Драмы, Мелодрамы, Размер: 1.46 ГБ, Здоровье: 0%

Anonymous

0
0|0

39
0

04 фев 2014, 21:26

Anonymous Перейти к последнему сообщению

В этой теме нет новых непрочитанных сообщений. Скачать торрент Судный день / Doomsday (Нил Маршалл / Neil Marshall) [2008, США, Германия, Великобритания, ЮАР, фантастика, боевик, триллер, BDRip] [Театральная версия / Theatrical Cut] Dub + Original + Subs (Rus, Eng)

в форуме Фантастика, Фэнтези, Размер: 2.18 ГБ, Здоровье: 100%

Anonymous

0
39|13

60
0

19 фев 2014, 09:53

Anonymous Перейти к последнему сообщению

В этой теме нет новых непрочитанных сообщений. Скачать торрент Троя / Troy (Вольфганг Петерсен / Wolfgang Petersen) [2004, США, Великобритания, Мальта, боевик, драма, мелодрама, BDRip] [Театральная версия / Theatrical Cut] DUB

в форуме Боевики, Размер: 1.46 ГБ, Здоровье: 100%

Anonymous

0
29|10

41
0

24 апр 2014, 14:09

Anonymous Перейти к последнему сообщению

В этой теме нет новых непрочитанных сообщений. Скачать торрент Город воров / The Town (Бен Аффлек / Ben Affleck) [2010 г., триллер, драма, криминал, BDRip] (Театральная версия / Theatrical Cut) Dub + Sub

в форуме Триллеры, Размер: 1.46 ГБ, Здоровье: 0%

Anonymous

0
0|0

121
0

06 фев 2014, 11:45

Anonymous Перейти к последнему сообщению

В этой теме нет новых непрочитанных сообщений. Скачать торрент Человек-волк / The Wolfman (Джо Джонстон / Joe Johnston) [2010 г., ужасы, триллер, драма, BDRip-AVC] [Театральная версия / Theatrical cut] Dub

в форуме Ужасы, Размер: 2.2 ГБ, Здоровье: 0%

Anonymous

0
0|0

117
0

17 май 2014, 20:07

Anonymous Перейти к последнему сообщению



Сейчас этот форум просматривают: нет зарегистрированных пользователей и гости: 3


Вы не можете начинать темы
Вы не можете отвечать на сообщения
Вы не можете редактировать свои сообщения
Вы не можете удалять свои сообщения
Вы не можете добавлять вложения

Перейти:  

!ВНИМАНИЕ!
 Ресурс не предоставляет электронные версии произведений, а занимается лишь коллекционированием и каталогизацией ссылок, присылаемых и публикуемых на форуме нашими читателями. Если вы являетесь правообладателем какого-либо представленного материала и не желаете чтобы ссылка на него находилась в нашем каталоге, свяжитесь с нами и мы незамедлительно удалим её. Файлы для обмена на трекере предоставлены пользователями сайта, и администрация не несёт ответственности за их содержание. Просьба не заливать файлы, защищенные авторскими правами, а также файлы нелегального содержания!