На всех торрентах на трекере установлена скидка на скачивание в размере 100 процентов(а).
 Возможность скачивания торрента НЕ зависит от ограничений при низком ратио, низком аплоаде, требуемом ратио или требуемом аплоаде.


Начать новую тему Ответить на тему
Статистика раздачи
Размер: 2.19 ГБ | Добавлен: 11 фев 2014, 09:17 | Скачали: 0
Сидеров: 56  [0 байт/сек]    Личеров: 19  [0 байт/сек]
Пред. тема | След. тема 

Автор
Сообщение

СообщениеДобавлено: 11 фев 2014, 09:17 

Лофт / Loft
Страна: Бельгия, Woestijnvis
Жанр: драма, криминал, детектив
Год выпуска: 2008
Продолжительность: 01:57:38
Перевод: Любительский одноголосый (Вадим Белов)
Cубтитры: русские, английские
Оригинальная аудиодорожка: немецкий
Режиссер: Эрик Ван Луи / Erik Van Looy

В ролях: Коэн Де Боу, Филип Питерс, Матиас Скунартс, Bruno Vanden Broucke, Koen De Graeve, Veerle Baetens, Тине Реймер, Эн Миллер, Charlotte Vandermeersch, Wine Dierickx
Описание: Пятеро женатых друзей держат «берлогу», куда регулярно приглашают особ женского пола, чтобы «попить с ними чайку». Все да ничего, только один из них, готовясь к очередному свиданию, обнаруживает труп девушки, прикованный к кровати наручниками, в луже крови с явными признаками насильственной смерти. Под подозрением оказываются все некогда прекрасные друзья...
Сэмпл: http://multi-up.com/486993

Качество видео: BDRip-AVC
Формат видео: MKV

Видео: 1064x452 (2,35:1); 1763 Kbps; 24,000 fps; 0,153 bpp
Аудио #1: Russian; AC3; 6ch; 448 kbps; 48Hz; VO
Аудио #2: English; AC3; 6ch; 448 kbps; 48Hz; Original
Формат субтитров: softsub (SRT)
x264 log
Код:
--[Information] [07.05.2011 23:21:34] Encoding started
--[Information] [08.05.2011 12:22:34] Standard output stream
--[Information] [08.05.2011 12:22:34] Standard error stream
---[NoImage] avs [info]: 1064x452p 1:1 @ 24/1 fps (cfr)
---[NoImage] x264 [info]: using SAR=1/1
---[NoImage] x264 [info]: using cpu capabilities: MMX2 SSE2Fast SSSE3 FastShuffle SSE4.1 Cache64
---[NoImage] x264 [info]: profile High, level 4.1
---[NoImage]
---[NoImage] x264 [info]: frame I:1897  Avg QP:14.54  size: 51716
---[NoImage] x264 [info]: frame P:33274 Avg QP:17.60  size: 19802
---[NoImage] x264 [info]: frame B:134221 Avg QP:20.34  size:  5941
---[NoImage] x264 [info]: consecutive B-frames:  2.1%  1.4%  5.3% 13.1% 17.0% 43.9%  7.9%  1.8%  5.6%  1.9%
---[NoImage] x264 [info]: mb I  I16..4:  6.8% 78.3% 15.0%
---[NoImage] x264 [info]: mb P  I16..4:  2.8% 11.6%  1.8%  P16..4: 60.7% 15.0%  2.5%  0.3%  0.2%    skip: 5.2%
---[NoImage] x264 [info]: mb B  I16..4:  0.1%  0.5%  0.1%  B16..8: 46.4%  8.6%  2.1%  direct: 4.0%  skip:38.2%  L0:44.0% L1:48.1% BI: 7.9%
---[NoImage] x264 [info]: 8x8 transform intra:73.0% inter:66.0%
---[NoImage] x264 [info]: direct mvs  spatial:98.6% temporal:1.4%
---[NoImage] x264 [info]: coded y,uvDC,uvAC intra: 77.5% 70.2% 43.6% inter: 22.2% 13.9% 4.0%
---[NoImage] x264 [info]: i16 v,h,dc,p: 56% 11%  8% 25%
---[NoImage] x264 [info]: i8 v,h,dc,ddl,ddr,vr,hd,vl,hu: 15%  8%  8% 10% 13% 13% 12% 11% 11%
---[NoImage] x264 [info]: i4 v,h,dc,ddl,ddr,vr,hd,vl,hu: 26%  5%  5% 10% 13% 12% 10% 10% 10%
---[NoImage] x264 [info]: i8c dc,h,v,p: 37% 27% 23% 13%
---[NoImage] x264 [info]: Weighted P-Frames: Y:9.9% UV:5.9%
---[NoImage] x264 [info]: ref P L0: 43.8%  6.7% 19.7%  8.3%  6.7%  4.7%  4.2%  2.6%  2.7%  0.4%  0.0%
---[NoImage] x264 [info]: ref B L0: 69.3% 14.2%  6.7%  3.7%  2.5%  2.1%  1.1%  0.4%
---[NoImage] x264 [info]: ref B L1: 90.9%  9.1%
---[NoImage] x264 [info]: kb/s:1761.84
---[NoImage] encoded 169392 frames, 3.62 fps, 1761.84 kb/s
--[Information] Final statistics
---[Information] [08.05.2011 12:22:35] Video Bitrate Desired: 1763 kbit/s
---[Information] [08.05.2011 12:22:35] Video Bitrate Obtained (approximate): 1763 kbit/s
--[Information] [08.05.2011 12:22:35] Postprocessing
---[Information] Deleting intermediate files
--[Information] [08.05.2011 12:22:35] Job completed
MediaInfo
Код:
Формат                           : Matroska
Размер файла                     : 2,19 Гбайт
Продолжительность                : 1 ч. 57 м.
Общий поток                      : 2660 Кбит/сек
Дата кодирования                 : UTC 2011-05-08 12:21:20
Программа кодирования            : mkvmerge v4.6.0 ('Still Crazy After All These Years') сборка от Mar 10 2011 02:50:32
Библиотека кодирования           : libebml v1.2.0 + libmatroska v1.1.0

Видео
Идентификатор                    : 1
Формат                           : AVC
Формат/Информация                : Advanced Video Codec
Профиль формата                  : High@L4.1
Параметр CABAC формата           : Да
Параметр ReFrames формата        : 9 кадры
Идентификатор кодека             : V_MPEG4/ISO/AVC
Продолжительность                : 1 ч. 57 м.
Битрейт                          : 1763 Кбит/сек
Ширина                           : 1064 пикс.
Высота                           : 452 пикс.
Соотношение сторон               : 2,35:1
Частота кадров                   : 24,000 кадр/сек
Цветовое пространство            : YUV
Подвыборка цветности             : 4:2:0
Битовая глубина                  : 8 бит
Тип развёртки                    : Прогрессивная
Бит/(Пиксели*Кадры)              : 0.153
Размер потока                    : 1,41 Гбайт (64%)
Библиотека кодирования           : x264 core 114 r1924 08d04a4
Настройки программы : cabac=1 / ref=9 / deblock=1:-3:-2 / analyse=0x3:0x133 / me=umh / subme=10 / psy=1 / psy_rd=1.00:0.00 / mixed_ref=0 / me_range=32 / chroma_me=1 / trellis=2 / 8x8dct=1 / cqm=0 / deadzone=21,11 / fast_pskip=0 / chroma_qp_offset=-2 / threads=3 / sliced_threads=0 / nr=0 / decimate=0 / interlaced=0 / constrained_intra=0 / bframes=9 / b_pyramid=2 / b_adapt=2 / b_bias=0 / direct=3 / weightb=1 / open_gop=2 / weightp=2 / keyint=250 / keyint_min=24 / scenecut=40 / intra_refresh=0 / rc=2pass / mbtree=0 / bitrate=1763 / ratetol=1.0 / qcomp=0.60 / qpmin=0 / qpmax=69 / qpstep=4 / cplxblur=20.0 / qblur=0.5 / ip_ratio=1.40 / pb_ratio=1.30 / aq=1:0.70
Код:
Язык                             : English

Аудио #1
Идентификатор                    : 2
Формат                           : AC-3
Формат/Информация                : Audio Coding 3
Расширение режима                : CM (complete main)
Идентификатор кодека             : A_AC3
Продолжительность                : 1 ч. 57 м.
Вид битрейта                     : Постоянный
Битрейт                          : 448 Кбит/сек
Канал(ы)                         : 6 канала(ов)
Расположение каналов             : Front: L C R, Side: L R, LFE
Частота                          : 48,0 КГц
Битовая глубина                  : 16 бит
Метод сжатия                     : С потерями
Размер потока                    : 377 Мбайт (17%)
Заголовок                        : Авторский одноголосый (Вадим Белов)
Язык                             : Russian

Аудио #2
Идентификатор                    : 3
Формат                           : AC-3
Формат/Информация                : Audio Coding 3
Расширение режима                : CM (complete main)
Идентификатор кодека             : A_AC3
Продолжительность                : 1 ч. 57 м.
Вид битрейта                     : Постоянный
Битрейт                          : 448 Кбит/сек
Канал(ы)                         : 6 канала(ов)
Расположение каналов             : Front: L C R, Side: L R, LFE
Частота                          : 48,0 КГц
Битовая глубина                  : 16 бит
Метод сжатия                     : С потерями
Размер потока                    : 377 Мбайт (17%)
Заголовок                        : Оригинал
Язык                             : Dutch

Текст #1
Идентификатор                    : 4
Формат                           : UTF-8
Идентификатор кодека             : S_TEXT/UTF8
Идентификатор кодека/Информация  : UTF-8 Plain Text
Заголовок                        : Субтитры #1
Язык                             : English

Текст #2
Идентификатор                    : 5
Формат                           : UTF-8
Идентификатор кодека             : S_TEXT/UTF8
Идентификатор кодека/Информация  : UTF-8 Plain Text
Заголовок                        : Субтитры #2
Язык                             : Russian



загрузка...
Правила, инструкции, FAQ!!!
Торрент  Добавлен [11 фев 2014, 09:17] Скачать торрент
Скачать торрент
[ Размер 11.43 КБ / Просмотров 14 ]

Статус  
 
Размер  2.19 ГБ
Приватный: Нет (DHT включён)
.torrent скачан  0
Как залить торрент? | Как скачать Torrent? | Как смотреть и слушать онлайн?  


     Отправить личное сообщение
   
Страница 1 из 1
Показать сообщения за:  Поле сортировки  
Начать новую тему Ответить на тему

   Похожие торренты   Автор   Ответы   Просмотры   Последнее сообщение 
В этой теме нет новых непрочитанных сообщений. Скачать торрент Проверен [iPad] Лофт / Loft (Эрик Ван Луи / Erik Van Looy) [2008 г., триллер, детектив, драма, BDRip]

в форуме Фильмы для iPod, iPhone, iPad, Размер: 2.09 ГБ, Здоровье: 100%

Гость

0
21|7

42
0

18 май 2015, 10:55

Гость Перейти к последнему сообщению

В этой теме нет новых непрочитанных сообщений. Скачать торрент Макс Пэйн / Max Payne (Джон Мур / John Moore) [2008 г., боевик, триллер, драма, криминал, детектив, BDRip] [Unrated] Dub + Mvo (Киномания) + Original + Subs (Rus, Rus Forced, Eng)

в форуме Боевики, Размер: 2.51 ГБ, Здоровье: 100%

Anonymous

0
14|5

88
0

19 фев 2014, 11:40

Anonymous Перейти к последнему сообщению

В этой теме нет новых непрочитанных сообщений. Скачать торрент Обещание / The Pledge (Шон Пенн / Sean Penn) [2001 г., триллер, драма, криминал, детектив, DVDRip-AVC] Dub + Original eng + Subs (Rus, Eng)

в форуме Драмы, Мелодрамы, Размер: 1.45 ГБ, Здоровье: 100%

Anonymous

0
55|18

39
0

03 фев 2014, 12:33

Anonymous Перейти к последнему сообщению

В этой теме нет новых непрочитанных сообщений. Скачать торрент Проверен [iPad] Список контактов / Deception (Марсель Лангенеггер/ Marcel Langenegger) [2008, США, Триллер, драма, криминал, детектив, BDRip, 576p] Dub + Original + sub (rus, eng)

в форуме Фильмы для iPod, iPhone, iPad, Размер: 1.85 ГБ, Здоровье: 100%

Anonymous

0
11|4

46
0

14 май 2015, 00:19

Anonymous Перейти к последнему сообщению

В этой теме нет новых непрочитанных сообщений. Скачать торрент Робокоп 3 / RoboCop 3 (Фред Деккер / Fred Dekker) [1993, фантастика, боевик, триллер, драма, криминал, BDRip-AVC] Dub + 2 MVO + DVO + AVO + Original + Subs

в форуме 720p | 1080p, Размер: 3.88 ГБ, Здоровье: 100%

Anonymous

0
8|2

110
1

01 фев 2014, 19:07

Anonymous Перейти к последнему сообщению



Сейчас этот форум просматривают: нет зарегистрированных пользователей и гости: 2


Вы не можете начинать темы
Вы не можете отвечать на сообщения
Вы не можете редактировать свои сообщения
Вы не можете удалять свои сообщения
Вы не можете добавлять вложения

Перейти:  

!ВНИМАНИЕ!
 Ресурс не предоставляет электронные версии произведений, а занимается лишь коллекционированием и каталогизацией ссылок, присылаемых и публикуемых на форуме нашими читателями. Если вы являетесь правообладателем какого-либо представленного материала и не желаете чтобы ссылка на него находилась в нашем каталоге, свяжитесь с нами и мы незамедлительно удалим её. Файлы для обмена на трекере предоставлены пользователями сайта, и администрация не несёт ответственности за их содержание. Просьба не заливать файлы, защищенные авторскими правами, а также файлы нелегального содержания!