На всех торрентах на трекере установлена скидка на скачивание в размере 100 процентов(а).
 Возможность скачивания торрента НЕ зависит от ограничений при низком ратио, низком аплоаде, требуемом ратио или требуемом аплоаде.


Начать новую тему Ответить на тему
Статистика раздачи
Размер: 1.78 ГБ | Добавлен: 11 фев 2014, 09:16 | Скачали: 0
Сидеров: 5  [0 байт/сек]    Личеров: 2  [0 байт/сек]
Пред. тема | След. тема 

Автор
Сообщение

СообщениеДобавлено: 11 фев 2014, 09:16 

Полина и Франсуа
Pauline et François
Страна: Франция
Жанр: мелодрама
Год выпуска: 2010
Продолжительность: 01:30:55

Перевод: Субтитры (перевод И. Рыбкиной, Éclair Group)
Cубтитры: русские
Оригинальная аудиодорожка: французский

Режиссер: Рено Фели / Renaud Fély

В ролях: Лаура Смет / Laura Smet (Pauline Cointat), Янник Ренье / Yannick Renier (François), Леа Дрюкер / Léa Drucker (Catherine), Жилль Коэн / Gilles Cohen (Serge), Анемон / Anémone (Hélène, la mère de Pauline)

Описание: История любви на фоне социальной драмы. Фильм снимался в живописном малонаселенном регионе Лимузен к юго-западу от Парижа, и тишина деревенской жизни служит почти гипнотическим фоном для развития нежных человеческих отношений. Полина, молодая вдова из Парижа, приезжает в Лимозен на новую работу в банке и арендует дом по соседству от своей коллеги Катерины, чей брат-кровельщик Франсуа живет через дорогу в бывшем амбаре. Так завязывается эта дружба, посредством которой мы сможем наблюдать дрейф отношений между членами одной семьи по извилистой реке времени.

Лаура Смет — дочь французской актрисы Натали Бей и певца Джонни Холлидея. Её родители развелись через три года после её рождения, и Лаура воспитывалась матерью. Закончив школу, в 16 лет Лаура Смет выбрала актёрскую профессию и посещала занятия актёра Реймона Аквавивы. Свою первую роль Лаура Смет получила у Хавьера Джианноли. В 2003 г. Смет сыграла главную роль больной раком Шарлотты в драме Джианноли «Страстные тела». Смет получила за эту роль хорошую критику и в 2004 г. была номинирована на французскую премию «Сезар» как лучшая начинающая актриса, а также получила приз Роми Шнайдер — известную кинопремию Франции для молодых актёров. (Wikipedia)

Доп. информация: запись со спутника (канал TV5MONDE)

Участник: Gindou Film Festival 2010; Festival du Film Francophone de Grèce 2011.


Сэмпл: http://multi-up.com/751503

Качество видео: DVB
Формат видео: MPG

Видео: MPEG Video 2, 720x576@1024x576 (16:9), 25 fps, ~2549 kbps avg
Аудио: Французский (48 kHz, MPEG Audio 2, 2 ch, ~192.00 kbps avg)
Формат субтитров: hardsub (неотключаемые)
MediaInfo
Код:
Полное имя                               : H:\My Torrents\[apreder]Pauline_et_Francois(2010)DVB.mpg
Формат                                   : MPEG-PS
Размер файла                             : 1,78 Гбайт
Продолжительность                        : 1 ч. 30 м.
Режим общего битрейта                    : Переменный
Общий поток                              : 2797 Кбит/сек

Видео
Идентификатор                            : 224 (0xE0)
Формат                                   : MPEG Video
Версия формата                           : Version 2
Профиль формата                          : Main@Main
Параметр BVOP формата                    : Да
Параметр матрицы формата                 : Выборочная
Параметр GOP формата                     : M=3, N=24
Продолжительность                        : 1 ч. 30 м.
Вид битрейта                             : Переменный
Битрейт                                  : 2549 Кбит/сек
Максимальный битрейт                     : 15,0 Мбит/сек
Ширина                                   : 720 пикселей
Высота                                   : 576 пикселей
Соотношение сторон                       : 16:9
Частота кадров                           : 25,000 кадров/сек
Стандарт вещания                         : PAL
Цветовое пространство                    : YUV
Субдискретизация насыщенности            : 4:2:0
Битовая глубина                          : 8 бит
Тип развёртки                            : Прогрессивная
Порядок развёртки                        : Верхнее поле первое
Метод сжатия                             : С потерями
Бит/(Пиксели*Кадры)                      : 0.246
Размер потока                            : 1,62 Гбайт (91%)

Аудио
Идентификатор                            : 192 (0xC0)
Формат                                   : MPEG Audio
Версия формата                           : Version 1
Профиль формата                          : Layer 2
Продолжительность                        : 1 ч. 30 м.
Вид битрейта                             : Постоянный
Битрейт                                  : 192 Кбит/сек
Каналы                                   : 2 канала
Частота                                  : 48,0 КГц
Метод сжатия                             : С потерями
Задержка видео                           : -470 мс.
Размер потока                            : 125 Мбайт (7%)
Скриншот c названием фильма
Скриншоты


Скриншоты анаморфированные



335/317√
загрузка...
Правила, инструкции, FAQ!!!
Торрент  Добавлен [11 фев 2014, 09:16] Скачать торрент
Скачать торрент
[ Размер 18.27 КБ / Просмотров 4 ]

Статус  
 
Размер  1.78 ГБ
Приватный: Нет (DHT включён)
.torrent скачан  0
Как залить торрент? | Как скачать Torrent? | Как смотреть и слушать онлайн?  


     Отправить личное сообщение
   
Страница 1 из 1
Показать сообщения за:  Поле сортировки  
Начать новую тему Ответить на тему

   Похожие торренты   Автор   Ответы   Просмотры   Последнее сообщение 
В этой теме нет новых непрочитанных сообщений. Скачать торрент Нас трое / Nous trois (Рено Бертран / Renaud Bertrand) [2010, Франция, мелодрама, DVDRip] Sub Rus + Original Fre

в форуме Драмы, Мелодрамы, Размер: 1.37 ГБ, Здоровье: 100%

Anonymous

0
5|1

40
0

13 фев 2014, 06:31

Anonymous Перейти к последнему сообщению

В этой теме нет новых непрочитанных сообщений. Скачать торрент Проверен [iPad] Молода и прекрасна / Jeune & jolie (Франсуа Озон / François Ozon ) [2013, Франция, драма, HDRip, SD (576p)] DUB + Original

в форуме Фильмы для iPod, iPhone, iPad, Размер: 1.6 ГБ, Здоровье: 100%

Гость

0
27|9

12
0

18 май 2015, 10:35

Гость Перейти к последнему сообщению

В этой теме нет новых непрочитанных сообщений. Скачать торрент Роль ее жизни / Le role de sa vie (Франсуа Фаврат / Francois Favrat) [2004, Франция, романтика, комедия, драма, DVDRip]

в форуме Комедии, Размер: 745.89 МБ, Здоровье: 33%

Anonymous

0
1|3

36
1

24 апр 2014, 14:09

Anonymous Перейти к последнему сообщению

В этой теме нет новых непрочитанных сообщений. Скачать торрент Роль ее жизни / Le role de sa vie (Франсуа Фаврат / Francois Favrat) [2004, Франция, романтика, комедия, драма, DVDRip] DVO

в форуме Комедии, Размер: 1.46 ГБ, Здоровье: 0%

Anonymous

0
0|0

25
0

03 фев 2014, 12:33

Anonymous Перейти к последнему сообщению

В этой теме нет новых непрочитанных сообщений. Скачать торрент Проверен [MULT] Гадкий Я / Despicable Me (Пьер Соффин / Pierre Coffin, Крис Рено / Chris Renaud) [2010, Мультфильм, комедия, семейный, HDRip] [MP4, 960x] Dub, Original, Sub Rus

в форуме Видео для смартфонов и КПК, Размер: 1.11 ГБ, Здоровье: 100%

Anonymous

0
56|19

63
0

02 авг 2014, 17:04

Anonymous Перейти к последнему сообщению



Сейчас этот форум просматривают: нет зарегистрированных пользователей и гости: 2


Вы не можете начинать темы
Вы не можете отвечать на сообщения
Вы не можете редактировать свои сообщения
Вы не можете удалять свои сообщения
Вы не можете добавлять вложения

Перейти:  

!ВНИМАНИЕ!
 Ресурс не предоставляет электронные версии произведений, а занимается лишь коллекционированием и каталогизацией ссылок, присылаемых и публикуемых на форуме нашими читателями. Если вы являетесь правообладателем какого-либо представленного материала и не желаете чтобы ссылка на него находилась в нашем каталоге, свяжитесь с нами и мы незамедлительно удалим её. Файлы для обмена на трекере предоставлены пользователями сайта, и администрация не несёт ответственности за их содержание. Просьба не заливать файлы, защищенные авторскими правами, а также файлы нелегального содержания!