На всех торрентах на трекере установлена скидка на скачивание в размере 100 процентов(а).
 Возможность скачивания торрента НЕ зависит от ограничений при низком ратио, низком аплоаде, требуемом ратио или требуемом аплоаде.


Начать новую тему Ответить на тему
Статистика раздачи
Размер: 2.59 ГБ | Добавлен: 11 фев 2014, 09:14 | Скачали: 5
Сидеров: 8  [0 байт/сек]    Личеров: 8  [0 байт/сек]
Пред. тема | След. тема 

Автор
Сообщение

СообщениеДобавлено: 11 фев 2014, 09:14 

Страна: Франция
Жанр: драма, комедия, экранизация
Год выпуска: 2010
Продолжительность: 01:30:05

Перевод: Субтитры (перевод К. Семенюк, Éclair Group)
Cубтитры: русские
Оригинальная аудиодорожка: французский

Режиссер: Иван Кальберак / Ivan CalbéracВ ролях: Бастьен Буллон / Bastien Bouillon (Simple), Жюльен Дрион / Julien Drion (Kléber), Мишель Омон / Michel Aumont (Villedieu), Валентин Катзелфлиз / Valentine Catzéflis (Aria), Эстебан Карвахаль-Алегрия / Esteban Carvajal-Alegria (Corentin), Жереми Элькаим / Jérémie Elkaïm (Emmanuel), Шемс Ода / Shemss Audat (Zahra)

Описание: По одноименному роману Мари-Од Мюрай / Marie-Aude Murail, вышедшему в 2004 году и получившему во Франции и Германии 12 престижных литературных наград.

Барнаби по прозвищу "Простак" уже 26 лет, но у него мозги трехлетнего ребенка. В раннем детстве из-за генетического заболевания он остановился в развитии. После смерти отца он живет вместе с матерью и младшим братом Клебером. Когда их мать погибает в автокатастрофе, а единственная тетка отказывается присматривать за Барнаби, подростки остаются совсем одни. Клебер вынужден взять брата под свою опеку, но сам еще слишком молод для такой ответственности…

Доп. информация: Запись со спутника (телеканал TV5MONDE).

Участник Petaluma International Film Festival 2011.

Сэмпл: http://multi-up.com/923608

Качество видео: DVB
Формат видео: MPEG-PS
Видео: MPEG Video 2, 720x576@1024x576 (16:9), 25 fps, ~3837 kbps avg, 0.370 bit/pixel
Аудио: Французский (48 kHz, MPEG Audio 2, 2 ch, ~192.00 kbps avg)
Формат субтитров: hardsub (неотключаемые)
MediaInfo
Код:
Полное имя                               : H:\My Torrents\[apreder]Simple(2010)DVB.mpg
Формат                                   : MPEG-PS
Размер файла                             : 2,59 Гбайт
Продолжительность                        : 1 ч. 30 м.
Режим общего битрейта                    : Переменный
Общий поток                              : 4110 Кбит/сек

Видео
Идентификатор                            : 224 (0xE0)
Формат                                   : MPEG Video
Версия формата                           : Version 2
Профиль формата                          : Main@Main
Параметр BVOP формата                    : Да
Параметр матрицы формата                 : Выборочная
Параметр GOP формата                     : M=3, N=24
Продолжительность                        : 1 ч. 30 м.
Вид битрейта                             : Переменный
Битрейт                                  : 3837 Кбит/сек
Ширина                                   : 720 пикселей
Высота                                   : 576 пикселей
Соотношение сторон                       : 16:9
Частота кадров                           : 25,000 кадров/сек
Стандарт вещания                         : PAL
Цветовое пространство                    : YUV
Субдискретизация насыщенности            : 4:2:0
Битовая глубина                          : 8 бит
Тип развёртки                            : Чересстрочная
Порядок развёртки                        : Верхнее поле первое
Метод сжатия                             : С потерями
Бит/(Пиксели*Кадры)                      : 0.370
Временной код первого кадра              : 00:00:00:00
Оригинал временного кода                 : Group of pictures header
Размер потока                            : 2,41 Гбайт (93%)

Аудио
Идентификатор                            : 192 (0xC0)
Формат                                   : MPEG Audio
Версия формата                           : Version 1
Профиль формата                          : Layer 2
Продолжительность                        : 1 ч. 30 м.
Вид битрейта                             : Постоянный
Битрейт                                  : 192 Кбит/сек
Каналы                                   : 2 канала
Частота                                  : 48,0 КГц
Метод сжатия                             : С потерями
Размер потока                            : 124 Мбайт (5%)
Скриншот c названием фильма
Скриншоты


Резервные скриншоты


загрузка...
Правила, инструкции, FAQ!!!
Торрент  Добавлен [11 фев 2014, 09:14] Скачать торрент
Скачать торрент
[ Размер 13.43 КБ / Просмотров 25 ]

Статус  
 
Размер  2.59 ГБ
Приватный: Нет (DHT включён)
.torrent скачан  5
Как залить торрент? | Как скачать Torrent? | Как смотреть и слушать онлайн?  


     Отправить личное сообщение
   
Страница 1 из 1
Показать сообщения за:  Поле сортировки  
Начать новую тему Ответить на тему

   Похожие торренты   Автор   Ответы   Просмотры   Последнее сообщение 
В этой теме нет новых непрочитанных сообщений. Скачать торрент Проверен [iPad] Таинственный путь / Mystery Road (Иван Сен / Ivan Sen ) [2013, Австралия, триллер, детектив, HDRip, SD (576p)] VO + Original + sub (eng)

в форуме Фильмы для iPod, iPhone, iPad, Размер: 2.05 ГБ, Здоровье: 100%

Гость

0
7|2

49
0

14 май 2015, 00:21

Гость Перейти к последнему сообщению

В этой теме нет новых непрочитанных сообщений. Скачать торрент Холодная смесь / Cold Fusion (Иван Митов / Ivan Mitov) [2010, США, боевик, BDRip]

в форуме Боевики, Размер: 743.83 МБ, Здоровье: 100%

Anonymous

0
2|1

43
1

19 апр 2014, 18:52

Anonymous Перейти к последнему сообщению

В этой теме нет новых непрочитанных сообщений. Скачать торрент Проверен [iPad] Моя супер-бывшая / My Super Ex-Girlfriend (Айвен Райтман/ Ivan Reitman) [2006, США, Фантастика, триллер, комедия, BDRip, 576p] Dub + Original + rus sub

в форуме Фильмы для iPod, iPhone, iPad, Размер: 1.66 ГБ, Здоровье: 100%

Anonymous

0
5|1

59
0

18 май 2015, 10:48

Anonymous Перейти к последнему сообщению

В этой теме нет новых непрочитанных сообщений. Скачать торрент Эволюция / Evolution (Айвен Рейтман /Ivan Reitman) [2001, США, Комедия, Фантастика, HDRip]

в форуме Комедии, Размер: 2.07 ГБ, Здоровье: 100%

Anonymous

0
5|2

29
0

29 апр 2014, 13:56

Anonymous Перейти к последнему сообщению

В этой теме нет новых непрочитанных сообщений. Скачать торрент Груз / Cargo (Иван Энглер / Ivan Engler, Ральф Эттер / Ralph Etter) [2009, Швейцария, фантастика,триллер, детектив, HDRip]

в форуме Фантастика, Фэнтези, Размер: 744.63 МБ, Здоровье: 100%

Anonymous

0
2|1

52
1

02 апр 2014, 08:22

Anonymous Перейти к последнему сообщению



Сейчас этот форум просматривают: нет зарегистрированных пользователей и гости: 1


Вы не можете начинать темы
Вы не можете отвечать на сообщения
Вы не можете редактировать свои сообщения
Вы не можете удалять свои сообщения
Вы не можете добавлять вложения

Перейти:  

!ВНИМАНИЕ!
 Ресурс не предоставляет электронные версии произведений, а занимается лишь коллекционированием и каталогизацией ссылок, присылаемых и публикуемых на форуме нашими читателями. Если вы являетесь правообладателем какого-либо представленного материала и не желаете чтобы ссылка на него находилась в нашем каталоге, свяжитесь с нами и мы незамедлительно удалим её. Файлы для обмена на трекере предоставлены пользователями сайта, и администрация не несёт ответственности за их содержание. Просьба не заливать файлы, защищенные авторскими правами, а также файлы нелегального содержания!