На всех торрентах на трекере установлена скидка на скачивание в размере 100 процентов(а).
 Возможность скачивания торрента НЕ зависит от ограничений при низком ратио, низком аплоаде, требуемом ратио или требуемом аплоаде.


Начать новую тему Ответить на тему
Статистика раздачи
Размер: 2.16 ГБ | Добавлен: 10 фев 2014, 13:03 | Скачали: 0
Сидеров: 0  [0 байт/сек]    Личеров: 0  [0 байт/сек]
Пред. тема | След. тема 

Автор
Сообщение

СообщениеДобавлено: 10 фев 2014, 13:03 

Крэйзи / Havoc
«Too much is never enough»


Страна: США Германия
Жанр: триллер,драма, криминал
Год выпуска: 2005
Продолжительность: 01:25:30
Перевод: Профессиональный (дублированный)
Cубтитры: Русские
Оригинальная аудиодорожка: Английский
Режиссер: Барбара Коппл / Barbara Kopple
В ролях
:
Энн Хэтэуэй, Бижу Филлипс, Майкл Бин, Джозеф Гордон-Левитт, Фредди Родригес, Майк Фогель, Рэймонд Крус, Ченнинг Татум...

Описание:
Компания лос-анджелесской золотой молодежи играет в "настоящую жизнь": секс, наркотики, гангстарэп и уличный мордобой с ровесниками победнее. Самые смелые, богатые и красивые отправляются на поиски острых ощущений в трущобы - к латиносам, проституткам и драгдилерам. Первая же попытка вступить в схватку с местными оборачивается поражением. Но нет худа без добра: когда бойфренд главной героини Эллисон (Хатауэй) от страха буквально наложит в штаны, ее саму озарит - надо идти в народ и поселиться здесь, на 16-й улице, с этими непонятными, коварными, плохо говорящими по-английски, склонными к групповому сексу, но настоящими людьми.




Качество видео: HDRip |
Контейнер: MKV
Видео: AVC, 976x544 (16:9), 2791 kbps, 23,976 fps
Аудио 1: AC-3, 448 kbps, 6ch, 48 KHz |дубляж|
Аудио 2: AC-3, 384 kbps, 6ch, 48 KHz |оригинал|
Формат субтитров: softsub (SRT)
MediaInfo
x264
x264 [info]: frame I:1141 Avg QP:13.63 size: 75020
x264 [info]: frame P:32969 Avg QP:16.85 size: 28554
x264 [info]: frame B:88893 Avg QP:19.79 size: 8568
x264 [info]: consecutive B-frames: 2.6% 4.1% 5.4% 77.4% 5.8% 3.8% 0.9%
x264 [info]: mb I I16..4: 15.4% 53.6% 31.0%
x264 [info]: mb P I16..4: 2.7% 17.7% 2.8% P16..4: 25.7% 30.5% 9.0% 3.3% 0.3% skip: 8.2%
x264 [info]: mb B I16..4: 0.6% 2.5% 0.3% B16..8: 30.9% 20.7% 3.4% direct: 7.4% skip:34.3% L0:37.3% L1:42.4% BI:20.3%
x264 [info]: 8x8 transform intra:73.6% inter:50.2%
x264 [info]: direct mvs spatial:99.1% temporal:0.9%
x264 [info]: coded y,uvDC,uvAC intra: 76.3% 77.6% 53.4% inter: 25.2% 23.5% 9.2%
x264 [info]: i16 v,h,dc,p: 38% 16% 10% 36%
x264 [info]: i8 v,h,dc,ddl,ddr,vr,hd,vl,hu: 11% 10% 14% 8% 10% 11% 11% 11% 14%
x264 [info]: i4 v,h,dc,ddl,ddr,vr,hd,vl,hu: 15% 12% 12% 7% 11% 11% 10% 9% 11%
x264 [info]: i8c dc,h,v,p: 38% 28% 20% 14%
x264 [info]: Weighted P-Frames: Y:3.2% UV:1.2%
x264 [info]: ref P L0: 52.3% 8.9% 17.1% 5.6% 4.7% 3.2% 3.0% 1.7% 1.8% 1.6% 0.1% 0.0%
x264 [info]: ref B L0: 85.3% 7.5% 2.7% 1.4% 1.0% 0.8% 0.7% 0.4% 0.2%
x264 [info]: ref B L1: 96.9% 3.1%
x264 [info]: kb/s:2789.10

x264 [total]: encoded 123003 frames, 2.68 fps, 2789.10 kb/s
Полное имя : H:\Havoc.2005_HDRip_cw.mkv
Формат : Matroska
Версия формата : Version 2
Размер файла : 2,16 Гбайт
Продолжительность : 1 ч. 25 м.
Общий поток : 3623 Кбит/сек
Название фильма : Крэйзи / Havoc
Дата кодирования : UTC 2013-03-14 18:53:15
Программа кодирования : mkvmerge v5.5.0 ('Healer') built on Apr 24 2012 23:47:03
Библиотека кодирования : libebml v1.2.3 + libmatroska v1.3.0

Видео
Идентификатор : 1
Формат : AVC
Формат/Информация : Advanced Video Codec
Профиль формата : High@L4.1
Параметр CABAC формата : Да
Параметр ReFrames формата : 10 кадров
Идентификатор кодека : V_MPEG4/ISO/AVC
Продолжительность : 1 ч. 25 м.
Битрейт : 2791 Кбит/сек
Ширина : 976 пикселей
Высота : 544 пикселя
Соотношение сторон : 16:9
Частота кадров : 23,976 кадра/сек
Цветовое пространство : YUV
Субдискретизация насыщенности : 4:2:0
Битовая глубина : 8 бит
Тип развёртки : Прогрессивная
Бит/(Пиксели*Кадры) : 0.219
Размер потока : 1,62 Гбайт (75%)
Заголовок : Havoc
Библиотека кодирования : x264 core 119 r2106 07efeb4
Настройки программы : cabac=1 / ref=10 / deblock=1:-2:-1 / analyse=0x3:0x133 / me=umh / subme=11 / psy=1 / psy_rd=1.00:0.10 / mixed_ref=1 / me_range=32 / chroma_me=1 / trellis=2 / 8x8dct=1 / cqm=0 / deadzone=21,11 / fast_pskip=1 / chroma_qp_offset=-3 / threads=4 / sliced_threads=0 / nr=0 / decimate=0 / interlaced=0 / bluray_compat=0 / constrained_intra=0 / bframes=6 / b_pyramid=2 / b_adapt=2 / b_bias=0 / direct=3 / weightb=1 / open_gop=0 / weightp=2 / keyint=250 / keyint_min=23 / scenecut=40 / intra_refresh=0 / rc_lookahead=50 / rc=2pass / mbtree=1 / bitrate=2791 / ratetol=1.0 / qcomp=0.60 / qpmin=0 / qpmax=69 / qpstep=4 / cplxblur=20.0 / qblur=0.5 / ip_ratio=1.40 / aq=1:1.00
Язык : English
Default : Да
Forced : Нет

Аудио #1
Идентификатор : 2
Формат : AC-3
Формат/Информация : Audio Coding 3
Расширение режима : CM (complete main)
Параметр Endianness формата : Big
Идентификатор кодека : A_AC3
Продолжительность : 1 ч. 25 м.
Вид битрейта : Постоянный
Битрейт : 448 Кбит/сек
Каналы : 6 каналов
Расположение каналов : Front: L C R, Side: L R, LFE
Частота : 48,0 КГц
Битовая глубина : 16 бит
Метод сжатия : С потерями
Размер потока : 274 Мбайт (12%)
Заголовок : DUB
Язык : Russian
Default : Да
Forced : Нет

Аудио #2
Идентификатор : 3
Формат : AC-3
Формат/Информация : Audio Coding 3
Расширение режима : CM (complete main)
Параметр Endianness формата : Big
Идентификатор кодека : A_AC3
Продолжительность : 1 ч. 25 м.
Вид битрейта : Постоянный
Битрейт : 384 Кбит/сек
Каналы : 6 каналов
Расположение каналов : Front: L C R, Side: L R, LFE
Частота : 48,0 КГц
Битовая глубина : 16 бит
Метод сжатия : С потерями
Размер потока : 235 Мбайт (11%)
Заголовок : Original
Язык : English
Default : Нет
Forced : Нет

Текст
Идентификатор : 4
Формат : UTF-8
Идентификатор кодека : S_TEXT/UTF8
Идентификатор кодека/Информация : UTF-8 Plain Text
Язык : Russian
Default : Да
Forced : Нет
Скриншоты
загрузка...
Правила, инструкции, FAQ!!!
Торрент  Добавлен [10 фев 2014, 13:03] Скачать торрент
Скачать торрент
[ Размер 11.3 КБ / Просмотров 7 ]

Статус  
 
Размер  2.16 ГБ
Приватный: Нет (DHT включён)
.torrent скачан  0
Как залить торрент? | Как скачать Torrent? | Как смотреть и слушать онлайн?  


     Отправить личное сообщение
   
Страница 1 из 1
Показать сообщения за:  Поле сортировки  
Начать новую тему Ответить на тему

   Похожие торренты   Автор   Ответы   Просмотры   Последнее сообщение 
В этой теме нет новых непрочитанных сообщений. Скачать торрент Крэйзи / Havoc (2005) DVDRip | D

в форуме Драмы, Мелодрамы, Размер: 1.45 ГБ, Здоровье: 0%

Anonymous

0
0|0

20
0

18 дек 2013, 21:11

Anonymous Перейти к последнему сообщению

В этой теме нет новых непрочитанных сообщений. Скачать торрент Возвращается муж из командировки (Иван Войтюк) [2007, Украина, криминальная драма, DVDRip] Original (rus)

в форуме Драмы, Мелодрамы, Размер: 745.7 МБ, Здоровье: ???%

Anonymous

0
0|1

71
1

15 апр 2014, 08:17

Anonymous Перейти к последнему сообщению

В этой теме нет новых непрочитанных сообщений. Скачать торрент Русский треугольник / Rusuli samkudhedi (Алеко Цабадзе) [2007, Грузия, Украина, криминальная драма, триллер, DVDRip] Original (rus)

в форуме Драмы, Мелодрамы, Размер: 1.37 ГБ, Здоровье: 0%

Anonymous

0
0|0

81
0

13 фев 2014, 11:40

Anonymous Перейти к последнему сообщению

В этой теме нет новых непрочитанных сообщений. Скачать торрент Проверен [iPod] На игле / Trainspotting (Дэнни Бойл / Danny Boyle) [1996 г., Криминальная драма, комедия, HDrip]

в форуме Фильмы для iPod, iPhone, iPad, Размер: 431.85 МБ, Здоровье: 100%

Гость

0
1|0

33
0

11 май 2015, 01:37

Гость Перейти к последнему сообщению

В этой теме нет новых непрочитанных сообщений. Скачать торрент Проверен Барбара Эрскин / Barbara Erskine - Королевство теней [1997, FB2]

в форуме Женский роман, Размер: 2.88 МБ, Здоровье: 100%

Anonymous

0
2|1

4
0

28 авг 2016, 20:31

Anonymous Перейти к последнему сообщению



Сейчас этот форум просматривают: нет зарегистрированных пользователей и гости: 1


Вы не можете начинать темы
Вы не можете отвечать на сообщения
Вы не можете редактировать свои сообщения
Вы не можете удалять свои сообщения
Вы не можете добавлять вложения

Перейти:  

!ВНИМАНИЕ!
 Ресурс не предоставляет электронные версии произведений, а занимается лишь коллекционированием и каталогизацией ссылок, присылаемых и публикуемых на форуме нашими читателями. Если вы являетесь правообладателем какого-либо представленного материала и не желаете чтобы ссылка на него находилась в нашем каталоге, свяжитесь с нами и мы незамедлительно удалим её. Файлы для обмена на трекере предоставлены пользователями сайта, и администрация не несёт ответственности за их содержание. Просьба не заливать файлы, защищенные авторскими правами, а также файлы нелегального содержания!