На всех торрентах на трекере установлена скидка на скачивание в размере 100 процентов(а).
 Возможность скачивания торрента НЕ зависит от ограничений при низком ратио, низком аплоаде, требуемом ратио или требуемом аплоаде.


Начать новую тему Ответить на тему
Статистика раздачи
Размер: 6.71 ГБ | Добавлен: 09 фев 2014, 21:02 | Скачали: 0
Сидеров: 0  [0 байт/сек]    Личеров: 0  [0 байт/сек]
Пред. тема | След. тема 

Автор
Сообщение

СообщениеДобавлено: 09 фев 2014, 21:02 

Страна: США, ЮАР
Студия: Centropolis Entertainment, Legendary Pictures, Mark Gordon Productions, The Mark Gordon Company, Warner Bros. Pictures
Жанр: фантастика, фэнтези, боевик, драма, приключения
Год выпуска: 2008
Продолжительность: 01:48:55

Перевод: русский + украинский профессиональные (полное дублирование) [Лицензия, BD CEE]
Оригинальная аудиодорожка: английская
Русские субтитры: есть
Режиссер: Роланд Эммерих / Roland Emmerich
В ролях: Стивен Стрейт, Камилла Белль, Клифф Кёртис, Джоэль Вирджил Вирсет, Аффиф Бен Бадра, Мо Зинал, Натаниэль Баринг, Мона Хэммонд, Марко Хэнлиэн, Рис Ричи
Роли дублировали: Сергей Бурунов, Татьяна Шитова, Александр Груздев, Пётр Иващенко, Александр Гаврилин



В далеком горном племени молодой охотник Д’Лех нашел свою любовь — красотку Эволет. Но когда загадочное воинственное племя напало на деревню и похитило Эволет, Д’Леху ничего не оставалось, как возглавить небольшую группу охотников, чтобы проследовать за этими властелинами войны даже на самый край света, дабы спасти любимую.
Ведомому судьбой отряду неумелых воинов предстоит сразиться с саблезубыми тиграми и доисторическими хищниками и в конце героического путешествия найти Потерянную Цивилизацию. Судьба их целиком находится во власти империи, неподдающейся воображению, той, где великие пирамиды простираются до небес. И там они примут бой против могущественного бога, жестко поработившего их народ.


Тип релиза: BDRip 1080p (исходник: 10 000 лет до н.э. / 10,000 BC (2008) CEE 1080p AVC DTS 5.1)
Контейнер: MKV
Видео кодек: x264
Аудио кодек: AC3
Видео: AVC / High@L4.1 / 2 pass / 23,976 fps / 1920x796p (2,40:1) / 6,9 Mbps / 0.188
Аудио 1: AC3 / 5.1 ch / 640 kbps / Русский дубляж, BD CEE
Аудио 2: AC3 / 5.1 ch / 640 kbps / Украинский дубляж, BD CEE
Аудио 3: AC3 / 5.1 ch / 640 kbps / Английский original, BD CEE
Субтитры: [softsub SRT]
Русские Forced, BD CEE (включены по умолчанию)
Русские Full, BD CEE
Украинские Forced, BD CEE
Украинские Full, BD CEE
Английские SDH, BD CEE
Скачать субтитры отдельно: русские (форсированные, полные); украинские (форсированные, полные); английские (SDH)
Дополнительно: Сохранены оригинальные чаптеры (главы) как на Blu-ray


Раздача от:












x264 [info]: frame I:1328 Avg QP:16.44 size:166515
x264 [info]: frame P:39628 Avg QP:18.84 size: 64246
x264 [info]: frame B:115745 Avg QP:21.04 size: 24734

Общее
Уникальный идентификатор : 212620220781138586302812938389689053277 (0x9FF52A3D56D6334091FDCEB729E9B05D)
Полное имя : F:Скачка торрент10000.BC.2008.BDRip1080p(Killbrain).mkv
Формат : Matroska
Версия формата : Version 2
Размер файла : 6,71 Гбайт
Продолжительность : 1 ч. 48 м.
Общий поток : 8814 Кбит/сек
Название фильма : 10,000 BC (2008) by Killbrain
Дата кодирования : UTC 2014-02-03 20:57:19
Программа кодирования : mkvmerge v5.8.0 ('No Sleep / Pillow') built on Sep 2 2012 15:37:04
Библиотека кодирования : libebml v1.2.3 + libmatroska v1.3.0

Видео
Идентификатор : 1
Формат : AVC
Формат/Информация : Advanced Video Codec
Профиль формата : High@L4.1
Параметр CABAC формата : Да
Параметр ReFrames формата : 4 кадра
Идентификатор кодека : V_MPEG4/ISO/AVC
Продолжительность : 1 ч. 48 м.
Битрейт : 6900 Кбит/сек
Ширина : 1920 пикселей
Высота : 796 пикселей
Соотношение сторон : 2,40:1
Режим частоты кадров : Постоянный
Частота кадров : 23,976 кадра/сек
Цветовое пространство : YUV
Субдискретизация насыщенности : 4:2:0
Битовая глубина : 8 бит
Тип развёртки : Прогрессивная
Бит/(Пиксели*Кадры) : 0.188
Размер потока : 5,11 Гбайт (76%)
Заголовок : 10,000 BC (2008)
Библиотека кодирования : x264 core 138 r2358 9e941d1
Настройки программы : cabac=1 / ref=4 / deblock=1:-3:-3 / analyse=0x3:0x113 / me=umh / subme=10 / psy=1 / psy_rd=1.00:0.15 / mixed_ref=1 / me_range=32 / chroma_me=1 / trellis=2 / 8x8dct=1 / cqm=0 / deadzone=21,11 / fast_pskip=0 / chroma_qp_offset=-3 / threads=3 / lookahead_threads=1 / sliced_threads=0 / nr=0 / decimate=0 / interlaced=0 / bluray_compat=0 / constrained_intra=0 / bframes=6 / b_pyramid=2 / b_adapt=2 / b_bias=0 / direct=3 / weightb=1 / open_gop=0 / weightp=2 / keyint=240 / keyint_min=24 / scenecut=40 / intra_refresh=0 / rc_lookahead=60 / rc=2pass / mbtree=0 / bitrate=6900 / ratetol=1.0 / qcomp=0.65 / qpmin=0 / qpmax=69 / qpstep=4 / cplxblur=20.0 / qblur=0.5 / vbv_maxrate=40000 / vbv_bufsize=30000 / nal_hrd=none / ip_ratio=1.40 / pb_ratio=1.30 / aq=1:0.80
Язык : English
Default : Да
Forced : Нет

Аудио #1
Идентификатор : 2
Формат : AC-3
Формат/Информация : Audio Coding 3
Расширение режима : CM (complete main)
Параметр Endianness формата : Big
Идентификатор кодека : A_AC3
Продолжительность : 1 ч. 48 м.
Вид битрейта : Постоянный
Битрейт : 640 Кбит/сек
Каналы : 6 каналов
Расположение каналов : Front: L C R, Side: L R, LFE
Частота : 48,0 КГц
Битовая глубина : 16 бит
Метод сжатия : С потерями
Размер потока : 499 Мбайт (7%)
Заголовок : AC3 / 5.1 ch / 640 kbps / Русский дубляж, BD CEE
Язык : Russian
Default : Да
Forced : Нет

Аудио #2
Идентификатор : 3
Формат : AC-3
Формат/Информация : Audio Coding 3
Расширение режима : CM (complete main)
Параметр Endianness формата : Big
Идентификатор кодека : A_AC3
Продолжительность : 1 ч. 48 м.
Вид битрейта : Постоянный
Битрейт : 640 Кбит/сек
Каналы : 6 каналов
Расположение каналов : Front: L C R, Side: L R, LFE
Частота : 48,0 КГц
Битовая глубина : 16 бит
Метод сжатия : С потерями
Размер потока : 499 Мбайт (7%)
Заголовок : AC3 / 5.1 ch / 640 kbps / Украинский дубляж, BD CEE
Язык : Ukrainian
Default : Нет
Forced : Нет

Аудио #3
Идентификатор : 4
Формат : AC-3
Формат/Информация : Audio Coding 3
Расширение режима : CM (complete main)
Параметр Endianness формата : Big
Идентификатор кодека : A_AC3
Продолжительность : 1 ч. 48 м.
Вид битрейта : Постоянный
Битрейт : 640 Кбит/сек
Каналы : 6 каналов
Расположение каналов : Front: L C R, Side: L R, LFE
Частота : 48,0 КГц
Битовая глубина : 16 бит
Метод сжатия : С потерями
Размер потока : 499 Мбайт (7%)
Заголовок : AC3 / 5.1 ch / 640 kbps / Английский original, BD CEE
Язык : English
Default : Нет
Forced : Нет

Текст #1
Идентификатор : 5
Формат : UTF-8
Идентификатор кодека : S_TEXT/UTF8
Идентификатор кодека/Информация : UTF-8 Plain Text
Заголовок : Forced, BD CEE
Язык : Russian
Default : Да
Forced : Нет

Текст #2
Идентификатор : 6
Формат : UTF-8
Идентификатор кодека : S_TEXT/UTF8
Идентификатор кодека/Информация : UTF-8 Plain Text
Заголовок : Full, BD CEE
Язык : Russian
Default : Нет
Forced : Нет

Текст #3
Идентификатор : 7
Формат : UTF-8
Идентификатор кодека : S_TEXT/UTF8
Идентификатор кодека/Информация : UTF-8 Plain Text
Заголовок : Forced, BD CEE
Язык : Ukrainian
Default : Нет
Forced : Нет

Текст #4
Идентификатор : 8
Формат : UTF-8
Идентификатор кодека : S_TEXT/UTF8
Идентификатор кодека/Информация : UTF-8 Plain Text
Заголовок : Full, BD CEE
Язык : Ukrainian
Default : Нет
Forced : Нет

Текст #5
Идентификатор : 9
Формат : UTF-8
Идентификатор кодека : S_TEXT/UTF8
Идентификатор кодека/Информация : UTF-8 Plain Text
Заголовок : SDH, BD CEE
Язык : English
Default : Нет
Forced : Нет

Меню
00:00:00.000 : :Chapter 01
00:05:35.668 : :Chapter 02
00:09:46.168 : :Chapter 03
00:13:39.860 : :Chapter 04
00:17:27.254 : :Chapter 05
00:20:22.679 : :Chapter 06
00:24:48.278 : :Chapter 07
00:27:51.670 : :Chapter 08
00:30:28.827 : :Chapter 09
00:34:41.662 : :Chapter 10
00:39:04.467 : :Chapter 11
00:44:46.141 : :Chapter 12
00:47:53.495 : :Chapter 13
00:52:24.099 : :Chapter 14
00:56:56.704 : :Chapter 15
01:01:34.190 : :Chapter 16
01:06:30.736 : :Chapter 17
01:10:58.045 : :Chapter 18
01:13:46.505 : :Chapter 19
01:17:18.550 : :Chapter 20
01:19:43.528 : :Chapter 21
01:24:17.177 : :Chapter 22
01:29:54.263 : :Chapter 23
01:32:52.066 : :Chapter 24
01:35:40.985 : :Chapter 25
01:37:52.032 : :Chapter 26




загрузка...
Правила, инструкции, FAQ!!!
Торрент  Добавлен [09 фев 2014, 21:02] Скачать торрент
Скачать торрент
[ Размер 17.38 КБ / Просмотров 6 ]

Статус  
 
Размер  6.71 ГБ
Приватный: Нет (DHT включён)
.torrent скачан  0
Как залить торрент? | Как скачать Torrent? | Как смотреть и слушать онлайн?  


     Отправить личное сообщение
   
Страница 1 из 1
Показать сообщения за:  Поле сортировки  
Начать новую тему Ответить на тему

   Похожие торренты   Автор   Ответы   Просмотры   Последнее сообщение 
В этой теме нет новых непрочитанных сообщений. Скачать торрент Проверен Сафо / Sappho (2008) BDRip 1080p | Лицензия

в форуме 720p | 1080p, Размер: 10.88 ГБ, Здоровье: 100%

Гость

0
7|7

32
48

29 ноя 2014, 00:42

Гость Перейти к последнему сообщению

В этой теме нет новых непрочитанных сообщений. Скачать торрент Проверен Рыжий пес / Red Dog (2011) BDRip 1080p | Лицензия

в форуме 720p | 1080p, Размер: 9.49 ГБ, Здоровье: 100%

Anonymous

0
33|4

46
35

25 апр 2015, 16:52

Anonymous Перейти к последнему сообщению

В этой теме нет новых непрочитанных сообщений. Скачать торрент Проверен Василиса (2014) BDRip 1080p | Лицензия

в форуме 720p | 1080p, Размер: 10.02 ГБ, Здоровье: 17%

Гость

0
12|70

59
13

31 янв 2015, 13:06

Гость Перейти к последнему сообщению

В этой теме нет новых непрочитанных сообщений. Скачать торрент Владение 18 (2013) BDRip 1080p | Лицензия

в форуме 720p | 1080p, Размер: 7.01 ГБ, Здоровье: 100%

Anonymous

0
28|1

37
351

12 апр 2014, 13:52

Anonymous Перейти к последнему сообщению

В этой теме нет новых непрочитанных сообщений. Скачать торрент Колония / The Colony (2013) BDRip 1080p | Лицензия

в форуме 720p | 1080p, Размер: 7.15 ГБ, Здоровье: 0%

Anonymous

0
0|0

17
0

24 фев 2014, 10:35

Anonymous Перейти к последнему сообщению



Сейчас этот форум просматривают: нет зарегистрированных пользователей и гости: 2


Вы не можете начинать темы
Вы не можете отвечать на сообщения
Вы не можете редактировать свои сообщения
Вы не можете удалять свои сообщения
Вы не можете добавлять вложения

Перейти:  

!ВНИМАНИЕ!
 Ресурс не предоставляет электронные версии произведений, а занимается лишь коллекционированием и каталогизацией ссылок, присылаемых и публикуемых на форуме нашими читателями. Если вы являетесь правообладателем какого-либо представленного материала и не желаете чтобы ссылка на него находилась в нашем каталоге, свяжитесь с нами и мы незамедлительно удалим её. Файлы для обмена на трекере предоставлены пользователями сайта, и администрация не несёт ответственности за их содержание. Просьба не заливать файлы, защищенные авторскими правами, а также файлы нелегального содержания!