На всех торрентах на трекере установлена скидка на скачивание в размере 100 процентов(а).
 Возможность скачивания торрента НЕ зависит от ограничений при низком ратио, низком аплоаде, требуемом ратио или требуемом аплоаде.


Начать новую тему Ответить на тему
Пред. тема | След. тема 
Автор
Сообщение

СообщениеДобавлено: 09 фев 2014, 09:10 

Название: Зажги меня
Оригинальное название: Plush
Год выхода: 2013
Жанр: триллер
Режиссер: Кэтрин Хардвик

В ролях: Эмили Браунинг, Завьер Сэмюэл, Кэм Жиганде, Фрэнсис Фишер, Томас Деккер, Доун Оливери, Кэйси ЛаБоу, Кимико Гельман, Брэндон Джей МакЛарен

О фильме:
Хейли – участница рок-группы «Plush», являющаяся основным автором песен и переживающая глубокий творческий кризис. Вдохновение покинуло ее, когда брат Хейли и гитарист «Plush» погиб в результате передозировки наркотиков, поэтому следующий альбом группы стал настоящей катастрофой, холодно принятый музыкальными критиками и не вызвавший особого интереса у аудитории.

Совершенно неожиданно Хейли вновь находит вдохновение, когда в качестве замены ее брата в «Plush» приходит молодой талантливый гитарист Энцо, имеющий в запасе свежие музыкальные идеи и готовый поделиться с окружающими своим оптимистичным настроем. Совместная работа Энцо и Хейли очень скоро принесла свои плоды: рок-группа выбралась из опасного кризисного состояния, и перед музыкантами снова замаячила перспектива музыкальной карьеры. Проблема в том, что отношения с Энцо вскоре вышли за рамки профессиональных, и Хейли начала понимать, что он становится угрозой для жизни близких ей людей ...



Выпущено: США
Продолжительность: 01:39:22
Озвучивание: Любительское (одноголосое) [Руслан Николаев]


Формат: MKV
Качество: BDRip 720p [VETO]
Видео: 4782 kb/s, 1280x688
Аудио: Russian: AC3, 384 kb/s (6 ch) / English: DTS, 1510 kb/s (6 ch)
Субтитры: Russian, English
Дополнительно: Сохранены оригинальные чаптеры как на Blu-ray

Скачать: Сэмпл

Релиз группы:




Общее
Plush.2013.Blu.Ray.720p.CINEMANIA.mkv
Формат : Matroska
Версия формата : Version 4 / Version 2
Размер файла : 4,63 Гбайт
Продолжительность : 1 ч. 39 м.
Общий поток : 6676 Кбит/сек
Название фильма : Release Group CINEMANIA
Дата кодирования : UTC 2014-02-08 21:35:58
Программа кодирования : mkvmerge v6.7.0 ('Back to the Ground') 64bit built on Jan 8 2014 15:10:52
Библиотека кодирования : libebml v1.3.0 + libmatroska v1.4.1

Видео
Идентификатор : 1
Формат : AVC
Формат/Информация : Advanced Video Codec
Профиль формата : High@L4.1
Параметр CABAC формата : Да
Параметр ReFrames формата : 5 кадров
Идентификатор кодека : V_MPEG4/ISO/AVC
Продолжительность : 1 ч. 39 м.
Битрейт : 4782 Кбит/сек
Ширина : 1280 пикселей
Высота : 688 пикселей
Соотношение сторон : 1,85:1
Режим частоты кадров : Постоянный
Частота кадров : 23,976 кадра/сек
Цветовое пространство : YUV
Субдискретизация насыщенности : 4:2:0
Битовая глубина : 8 бит
Тип развёртки : Прогрессивная
Бит/(Пиксели*Кадры) : 0.226
Размер потока : 3,23 Гбайт (70%)
Заголовок : Release Group CINEMANIA
Библиотека кодирования : x264 core 140 r2377 1ca7bb9
Настройки программы : cabac=1 / ref=5 / deblock=1:0:0 / analyse=0x3:0x133 / me=umh / subme=7 / psy=1 / psy_rd=1.00:0.00 / mixed_ref=1 / me_range=16 / chroma_me=1 / trellis=1 / 8x8dct=1 / cqm=0 / deadzone=21,11 / fast_pskip=0 / chroma_qp_offset=-2 / threads=12 / lookahead_threads=2 / sliced_threads=0 / nr=0 / decimate=1 / interlaced=0 / bluray_compat=0 / constrained_intra=0 / bframes=3 / b_pyramid=2 / b_adapt=1 / b_bias=0 / direct=1 / weightb=1 / open_gop=0 / weightp=1 / keyint=250 / keyint_min=23 / scenecut=40 / intra_refresh=0 / rc_lookahead=40 / rc=2pass / mbtree=1 / bitrate=4782 / ratetol=1.0 / qcomp=0.60 / qpmin=0 / qpmax=69 / qpstep=4 / cplxblur=20.0 / qblur=0.5 / ip_ratio=1.40 / aq=1:1.00
Язык : English
Default : Да
Forced : Нет

Аудио #1
Идентификатор : 2
Формат : AC-3
Формат/Информация : Audio Coding 3
Расширение режима : CM (complete main)
Параметр Endianness формата : Big
Идентификатор кодека : A_AC3
Продолжительность : 1 ч. 39 м.
Вид битрейта : Постоянный
Битрейт : 384 Кбит/сек
Каналы : 6 каналов
Расположение каналов : Front: L C R, Side: L R, LFE
Частота : 48,0 КГц
Битовая глубина : 16 бит
Метод сжатия : С потерями
Размер потока : 273 Мбайт (6%)
Заголовок : [Руслан Николаев]
Язык : Russian
Default : Да
Forced : Да

Аудио #2
Идентификатор : 3
Формат : DTS
Формат/Информация : Digital Theater Systems
Режим : 16
Параметр Endianness формата : Big
Идентификатор кодека : A_DTS
Продолжительность : 1 ч. 39 м.
Вид битрейта : Постоянный
Битрейт : 1509 Кбит/сек
Каналы : 6 каналов
Расположение каналов : Front: L C R, Side: L R, LFE
Частота : 48,0 КГц
Битовая глубина : 16 бит
Метод сжатия : С потерями
Размер потока : 1,05 Гбайт (23%)
Язык : English
Default : Нет
Forced : Нет

Текст #1
Идентификатор : 4
Формат : UTF-8
Идентификатор кодека : S_TEXT/UTF8
Идентификатор кодека/Информация : UTF-8 Plain Text
Язык : Russian
Default : Нет
Forced : Нет

Текст #2
Идентификатор : 5
Формат : UTF-8
Идентификатор кодека : S_TEXT/UTF8
Идентификатор кодека/Информация : UTF-8 Plain Text
Язык : English
Default : Нет
Forced : Нет

Меню
00:00:00.000 : en:00:00:00.000
00:09:42.582 : en:00:09:42.582
00:16:19.187 : en:00:16:19.187
00:25:31.363 : en:00:25:31.363
00:34:36.616 : en:00:34:36.616
00:43:01.579 : en:00:43:01.579
00:52:02.494 : en:00:52:02.494
00:59:22.017 : en:00:59:22.017
01:09:05.892 : en:01:09:05.892
01:17:13.045 : en:01:17:13.045
01:26:17.089 : en:01:26:17.089
01:32:04.769 : en:01:32:04.769




Закрыто по требованию правообладателя


     Отправить личное сообщение
   
Страница 1 из 1
Показать сообщения за:  Поле сортировки  
Начать новую тему Ответить на тему
   Похожие темы   Автор   Ответы   Просмотры   Последнее сообщение 
В этой теме нет новых непрочитанных сообщений. Скачать торрент Проверен Вложения Тахира Мафи | Зажги меня (2015) [FB2]

в форуме Фантастика, фэнтези, Размер: 1.44 МБ, Здоровье: 100%

Anonymous

0
61|2

112
4

08 янв 2015, 18:11

Anonymous Перейти к последнему сообщению

В этой теме нет новых непрочитанных сообщений. Скачать торрент Проверен Вложения (Skate Punk) Plush Fish - Дискография (w. Одна На Двоих / The Coconut Butts) (6 релизов) - 2003-2015, MP3, 256-320 kbps

в форуме Русский Рок, Размер: 410.69 МБ, Здоровье: 100%

Anonymous

0
19|6

7
0

23 авг 2016, 10:13

Anonymous Перейти к последнему сообщению

В этой теме нет новых непрочитанных сообщений. Скачать торрент Проверен Вложения Mylene Farmer: Timeless 2013 - Le Film (2013) BDRip 720p

в форуме Концерты (HD-Video), Размер: 4.37 ГБ, Здоровье: 100%

Anonymous

0
511|2

118
7

18 сен 2014, 20:07

Anonymous Перейти к последнему сообщению

В этой теме нет новых непрочитанных сообщений. Скачать торрент Проверен Вложения Andrew Schloss, David Joachim - Fire It Up: More Than 400 Recipes for Grilling Everything / Зажги: Более 400 гриль-рецептов [2011, ePub, ENG]

в форуме Кулинария, Размер: 9.07 МБ, Здоровье: ???%

Anonymous

0
0|3

5
1

18 окт 2016, 23:53

Anonymous Перейти к последнему сообщению

В этой теме нет новых непрочитанных сообщений. Скачать торрент Вложения Она / Her (2013) BDRip 720p | L, A

в форуме 720p | 1080p, Размер: 10.41 ГБ, Здоровье: 0%

Anonymous

0
0|0

37
0

04 май 2014, 09:26

Anonymous Перейти к последнему сообщению



Сейчас этот форум просматривают: нет зарегистрированных пользователей и гости: 1


Вы не можете начинать темы
Вы не можете отвечать на сообщения
Вы не можете редактировать свои сообщения
Вы не можете удалять свои сообщения
Вы не можете добавлять вложения

Перейти:  

!ВНИМАНИЕ!
 Ресурс не предоставляет электронные версии произведений, а занимается лишь коллекционированием и каталогизацией ссылок, присылаемых и публикуемых на форуме нашими читателями. Если вы являетесь правообладателем какого-либо представленного материала и не желаете чтобы ссылка на него находилась в нашем каталоге, свяжитесь с нами и мы незамедлительно удалим её. Файлы для обмена на трекере предоставлены пользователями сайта, и администрация не несёт ответственности за их содержание. Просьба не заливать файлы, защищенные авторскими правами, а также файлы нелегального содержания!