На всех торрентах на трекере установлена скидка на скачивание в размере 100 процентов(а).
 Возможность скачивания торрента НЕ зависит от ограничений при низком ратио, низком аплоаде, требуемом ратио или требуемом аплоаде.


Начать новую тему Ответить на тему
Статистика раздачи
Размер: 2.01 ГБ | Добавлен: 08 фев 2014, 20:43 | Скачали: 0
Сидеров: 0  [0 байт/сек]    Личеров: 0  [0 байт/сек]
Пред. тема | След. тема 

Автор
Сообщение

СообщениеДобавлено: 08 фев 2014, 20:43 

Название: Роскошная жизнь
Оригинальное название: Lymelife
Год выхода: 2008
Жанр: Драма, мелодрама
Режиссер: Дерик Мартини

В ролях: Рори Калкин, Алек Болдуин, Джилл Хеннесси, Эмма Робертс, Тимоти Хаттон, Синтия Никсон, Логан Хаффман, Брэндон Зане Уилсон, Адам Скаримболо, Киран Калкин, Филлип Пеннестри, Луис Руффоло мл., Изабелла Дэвид, Дерик Мартини, Мэттью Мартини, Стивен Мартини, Арти Паскуале, Гарри Л. Седдон

О фильме:Америка 1970-х. В то время как застройщик Микки Бартлетт (Алек Болдуин) готовится стать миллионером, продавая дома беднякам, его сосед Чарли Брэгг (Тимоти Хаттон) погружается в глубокую депрессию, вызванную клещевой лихорадкой, которой мужчина заразился на охоте. Впрочем, удача одного и проблема другого одинаково плачевно сказываются на их семьях, в которых готовятся вступить во взрослую жизнь дети-подростки.



Страна: США
Студия: A Martini Bros. Production, Bartlett Films, Cappa Defina Productions, Cappa Productions, El Dorado Pictures
Продолжительность: 01:34:07
Перевод: Дублированный + оригинал


Кодек: MPEG-4 AVC
Качество: BDRip-AVC
Видео: MPEG-4 AVC, 2350 Кбит/с, 1024x426 , 23.976 кадр/с
Звук:
Аудио #1: Русский (AC3, 2 ch, 256 Кбит/с) / Дублированный (R5)
Аудио #2: Английский (AC3, 6 ch, 448 Кбит/с)
Субтитры: Английские (SDH)

Семпл

Общее
Уникальный идентификатор : 221030518193954053265322902973616721199 (0xA648EDEA9F8C0AC2A13C07E8EEFB8D2F)
Полное имя : D:Мои РипыRoskoshnaja.zhizn.2008.x264.BDRip.AVC.MediaClub.mkv
Формат : Matroska
Версия формата : Version 4 / Version 2
Размер файла : 2,01 Гбайт
Продолжительность : 1 ч. 34 м.
Общий поток : 3042 Кбит/сек
Название фильма : = MediaClub = rip by krakatuq
Дата кодирования : UTC 2014-02-08 10:19:51
Программа кодирования : mkvmerge v6.6.0 ('The Edge Of The In Between') built on Dec 1 2013 17:55:00
Библиотека кодирования : libebml v1.3.0 + libmatroska v1.4.1

Видео
Идентификатор : 1
Формат : AVC
Формат/Информация : Advanced Video Codec
Профиль формата : High@L4.1
Параметр CABAC формата : Да
Параметр ReFrames формата : 9 кадров
Идентификатор кодека : V_MPEG4/ISO/AVC
Продолжительность : 1 ч. 34 м.
Битрейт : 2350 Кбит/сек
Ширина : 1024 пикселя
Высота : 426 пикселей
Соотношение сторон : 2,40:1
Режим частоты кадров : Постоянный
Частота кадров : 23,976 кадра/сек
Цветовое пространство : YUV
Субдискретизация насыщенности : 4:2:0
Битовая глубина : 8 бит
Тип развёртки : Прогрессивная
Бит/(Пиксели*Кадры) : 0.225
Размер потока : 1,50 Гбайт (75%)
Заголовок : Roskoshnaja.zhizn.2008.x264.BDRip.AVC.MediaClub
Библиотека кодирования : x264 core 130 r2273 b3065e6
Настройки программы : cabac=1 / ref=9 / deblock=1:-2:-2 / analyse=0x3:0x133 / me=umh / subme=11 / psy=1 / psy_rd=1.00:0.15 / mixed_ref=1 / me_range=32 / chroma_me=1 / trellis=2 / 8x8dct=1 / cqm=0 / deadzone=21,11 / fast_pskip=0 / chroma_qp_offset=-3 / threads=3 / lookahead_threads=1 / sliced_threads=0 / nr=0 / decimate=0 / interlaced=0 / bluray_compat=0 / constrained_intra=0 / bframes=8 / b_pyramid=2 / b_adapt=2 / b_bias=0 / direct=3 / weightb=1 / open_gop=0 / weightp=2 / keyint=240 / keyint_min=23 / scenecut=40 / intra_refresh=0 / rc=2pass / mbtree=0 / bitrate=2350 / ratetol=1.0 / qcomp=0.60 / qpmin=0 / qpmax=69 / qpstep=4 / cplxblur=20.0 / qblur=0.5 / ip_ratio=1.40 / pb_ratio=1.30 / aq=1:1.00
Язык : English
Default : Да
Forced : Нет

Аудио #1
Идентификатор : 2
Формат : AC-3
Формат/Информация : Audio Coding 3
Расширение режима : CM (complete main)
Параметр Endianness формата : Big
Идентификатор кодека : A_AC3
Продолжительность : 1 ч. 34 м.
Вид битрейта : Постоянный
Битрейт : 256 Кбит/сек
Каналы : 2 канала
Расположение каналов : Front: L R
Частота : 48,0 КГц
Битовая глубина : 16 бит
Метод сжатия : С потерями
Размер потока : 173 Мбайт (8%)
Заголовок : TRACK_01_DUB_RUS
Язык : Russian
Default : Да
Forced : Да

Аудио #2
Идентификатор : 3
Формат : AC-3
Формат/Информация : Audio Coding 3
Расширение режима : CM (complete main)
Параметр Endianness формата : Big
Идентификатор кодека : A_AC3
Продолжительность : 1 ч. 34 м.
Вид битрейта : Постоянный
Битрейт : 448 Кбит/сек
Каналы : 6 каналов
Расположение каналов : Front: L C R, Side: L R, LFE
Частота : 48,0 КГц
Битовая глубина : 16 бит
Метод сжатия : С потерями
Размер потока : 303 Мбайт (15%)
Заголовок : TRACK_02_ORIGINAL_ENG
Язык : English
Default : Нет
Forced : Нет

Текст
Идентификатор : 4
Формат : UTF-8
Идентификатор кодека : S_TEXT/UTF8
Идентификатор кодека/Информация : UTF-8 Plain Text
Заголовок : Text_01_SUB_ENG
Язык : English
Default : Нет
Forced : Нет

Меню
00:00:00.000 : en:Chapter 01
00:05:37.211 : en:Chapter 02
00:12:47.223 : en:Chapter 03
00:19:10.022 : en:Chapter 04
00:24:02.816 : en:Chapter 05
00:30:01.132 : en:Chapter 06
00:31:56.372 : en:Chapter 07
00:36:45.953 : en:Chapter 08
00:42:23.290 : en:Chapter 09
00:45:42.531 : en:Chapter 10
00:50:05.419 : en:Chapter 11
00:56:39.020 : en:Chapter 12
01:00:13.943 : en:Chapter 13
01:04:44.046 : en:Chapter 14
01:08:41.283 : en:Chapter 15
01:14:51.737 : en:Chapter 16
01:19:46.238 : en:Chapter 17
01:23:35.844 : en:Chapter 18
01:25:04.890 : en:Chapter 19
01:29:20.979 : en:Chapter 20
01:34:07.725 : en:Chapter 21

x264 [info]: frame I:1717 Avg QP:15.21 size: 91116
x264 [info]: frame P:45391 Avg QP:18.45 size: 27801
x264 [info]: frame B:136827 Avg QP:19.94 size: 9949

• Сохранены оригинальные чаптеры как на Blu-ray.

• За помощь в подготовке релиза спасибо Константину - Painter и Виталию - neni




Релиз от:
Автор рипа:
загрузка...
Правила, инструкции, FAQ!!!
Торрент  Добавлен [08 фев 2014, 20:43] Скачать торрент
Скачать торрент
[ Размер 10.6 КБ / Просмотров 6 ]

Статус  
 
Размер  2.01 ГБ
Приватный: Нет (DHT включён)
.torrent скачан  0
Как залить торрент? | Как скачать Torrent? | Как смотреть и слушать онлайн?  


     Отправить личное сообщение
   
Страница 1 из 1
Показать сообщения за:  Поле сортировки  
Начать новую тему Ответить на тему

   Похожие торренты   Автор   Ответы   Просмотры   Последнее сообщение 
В этой теме нет новых непрочитанных сообщений. Скачать торрент Проверен [iPad] Роскошная жизнь / Lymelife (Дерик Мартини/ Derick Martini) [2008, США, Драма, мелодрама, BDRip, 576p] Dub + Original + eng sub

в форуме Фильмы для iPod, iPhone, iPad, Размер: 1.61 ГБ, Здоровье: 100%

Anonymous

0
1|0

11
0

14 май 2015, 00:20

Anonymous Перейти к последнему сообщению

В этой теме нет новых непрочитанных сообщений. Скачать торрент Шальные деньги: Роскошная жизнь / Snabba cash - Livet deluxe (2013) HDRip | L1

в форуме Триллеры, Размер: 1.45 ГБ, Здоровье: 0%

Anonymous

0
0|0

26
0

17 фев 2014, 07:29

Anonymous Перейти к последнему сообщению

В этой теме нет новых непрочитанных сообщений. Скачать торрент Проверен Вечная жизнь / Das ewige Leben (2015) BDRip | L1

в форуме Триллеры, Размер: 1.7 ГБ, Здоровье: 100%

Гость

0
763|87

89
1633

14 дек 2015, 22:03

Гость Перейти к последнему сообщению

В этой теме нет новых непрочитанных сообщений. Скачать торрент Проверен Сэл Рейчел | Жизнь на передовой [2008] [DOC]

в форуме Эзотерика, гадания, магия, фен-шуй, Размер: 3.33 МБ, Здоровье: 100%

Гость

0
6|1

21
3

11 дек 2015, 00:45

Гость Перейти к последнему сообщению

В этой теме нет новых непрочитанных сообщений. Скачать торрент Проверен Гумкирия А. - Жизнь без страха [2008, PDF, RUS]

в форуме Популярная психология, Размер: 389.56 КБ, Здоровье: 100%

Anonymous

0
7|2

0
0

09 сен 2016, 22:48

Anonymous Перейти к последнему сообщению



Сейчас этот форум просматривают: нет зарегистрированных пользователей и гости: 4


Вы не можете начинать темы
Вы не можете отвечать на сообщения
Вы не можете редактировать свои сообщения
Вы не можете удалять свои сообщения
Вы не можете добавлять вложения

Перейти:  

!ВНИМАНИЕ!
 Ресурс не предоставляет электронные версии произведений, а занимается лишь коллекционированием и каталогизацией ссылок, присылаемых и публикуемых на форуме нашими читателями. Если вы являетесь правообладателем какого-либо представленного материала и не желаете чтобы ссылка на него находилась в нашем каталоге, свяжитесь с нами и мы незамедлительно удалим её. Файлы для обмена на трекере предоставлены пользователями сайта, и администрация не несёт ответственности за их содержание. Просьба не заливать файлы, защищенные авторскими правами, а также файлы нелегального содержания!