На всех торрентах на трекере установлена скидка на скачивание в размере 100 процентов(а).
 Возможность скачивания торрента НЕ зависит от ограничений при низком ратио, низком аплоаде, требуемом ратио или требуемом аплоаде.


Начать новую тему Ответить на тему
Статистика раздачи
Размер: 7.28 ГБ | Добавлен: 08 фев 2014, 00:51 | Скачали: 20
Сидеров: 8  [0 байт/сек]    Личеров: 2  [0 байт/сек]
Пред. тема | След. тема 

Автор
Сообщение

СообщениеДобавлено: 08 фев 2014, 00:51 

Название: Посейдон
Оригинальное название: Poseidon
Год выпуска: 2006
Жанр: Боевик, фильм-катастрофа, триллер, драма, приключения
Режиссер: Вольфганг Петерсен

В ролях: Джош Лукас, Курт Рассел, Джасинда Бэрретт, Ричард Дрейфусс, Эмми Россум, Миа Маэстро, Майк Фогель, Кевин Диллон, Фредди Родригес, Джимми Беннетт, Стэйси Фергюсон, Андре Брогер, Кирк Б.Р. Уоллер, Келли МакНейр, Гэбриел Джаррет, Дэвид Риверз, Гордон Томсон, Жан Манро, Каролин Лагерфельт, Джесси Хенеке, Кимберли Паттерсон, Дэвид Диттмер, Энди Дил, Валери Эзлинн, Кэрри Фраймер, Беверли Оуверстрит, Винсент Де Пол, Рэйчел Вандервуд

Описание: В ночь под Новый год в сверкающих драгоценностями салонах тринадцатипалубного гиганта дамы и господа предаются беззаботному веселью. Капитан провозглашает торжественный тост, бьют часы, пространство огромного плавучего зала рассекают лучи прожекторов и падающие из-под люстр ленты серпантина. И в этот миг при полном штиле на судно, затмив луну, вдруг обрушивается мощная волна цунами, и гигант опрокидывается вверх дном. Остальное время фильма занимают попытки маленькой группы смельчаков выбраться из пучин и завалов наверх, к днищу, где, возможно, им удастся найти выход на волю.



Страна: США
Студия: Irwin Allen Productions, Next Entertainment, Radiant Productions, Synthesis Entertainment, Virtual Studios, Warner Bros. Pictures
Продолжительность: 01:38:14
Перевод: Дублированный, профессиональный многоголосый, авторский одноголосый


Качество: BDRip 720p
Видео: MPEG-4 AVC, 6000 Кбит/с, 1280x530, 23.976 кадр/с
Аудио #1: Русский (AC3, 6 ch, 448 Кбит/с) / Дублированный
Аудио #2: Русский (DTS, 6 ch, 1509 Кбит/с) / Профессиональный многоголосый
Аудио #3: Русский (DTS, 6 ch, 755 Кбит/с) / Авторский одноголосый (Немахов)
Аудио #4: Украинский (AC3, 6 ch, 384 Кбит/с) / Профессиональный многоголосый
Аудио #5: Английский (DTS, 6 ch, 1509 Кбит/с)
Субтитры: Русские, английские

Семпл



Общее
Уникальный идентификатор : 243806362777753874987833870669739714901 (0xB76B65C0A1CC22DF8D8137E2683FE955)
Полное имя : D:Mои раздачиPoseidon.2006.BDRip.(720p)-MediaClub.mkv
Формат : Matroska
Версия формата : Version 4 / Version 2
Размер файла : 7,28 Гбайт
Продолжительность : 1 ч. 38 м.
Общий поток : 10,6 Мбит/сек
Название фильма : -=MediaClub-kaspr=-
Дата кодирования : UTC 2014-02-07 17:24:43
Программа кодирования : mkvmerge v6.1.0 ('Old Devil') built on Mar 4 2013 09:10:42
Библиотека кодирования : libebml v1.3.0 + libmatroska v1.4.0

Видео
Идентификатор : 1
Формат : AVC
Формат/Информация : Advanced Video Codec
Профиль формата : High@L4.1
Параметр CABAC формата : Да
Параметр ReFrames формата : 9 кадров
Идентификатор кодека : V_MPEG4/ISO/AVC
Продолжительность : 1 ч. 38 м.
Битрейт : 6000 Кбит/сек
Ширина : 1280 пикселей
Высота : 530 пикселей
Соотношение сторон : 2,40:1
Режим частоты кадров : Постоянный
Частота кадров : 23,976 кадра/сек
Цветовое пространство : YUV
Субдискретизация насыщенности : 4:2:0
Битовая глубина : 8 бит
Тип развёртки : Прогрессивная
Бит/(Пиксели*Кадры) : 0.369
Размер потока : 3,97 Гбайт (55%)
Заголовок : -=MediaClub-kaspr=-
Библиотека кодирования : x264 core 140 r2377+40 929f149 tMod [8-bit@4:2:0 X86_64]
Настройки программы : cabac=1 / ref=9 / deblock=1:-3:-3 / analyse=0x3:0x133 / me=umh / subme=11 / psy=1 / fade_compensate=0.00 / psy_rd=1.00:0.20 / mixed_ref=1 / me_range=32 / chroma_me=1 / trellis=2 / 8x8dct=1 / cqm=0 / deadzone=21,11 / fast_pskip=0 / chroma_qp_offset=-3 / threads=12 / lookahead_threads=3 / sliced_threads=0 / nr=0 / decimate=0 / interlaced=0 / bluray_compat=0 / constrained_intra=0 / fgo=0 / bframes=10 / b_pyramid=2 / b_adapt=2 / b_bias=0 / direct=3 / weightb=1 / open_gop=0 / weightp=2 / keyint=240 / keyint_min=23 / scenecut=40 / intra_refresh=0 / rc=2pass / mbtree=0 / bitrate=6000 / ratetol=1.0 / qcomp=0.60 / qpmin=0:0:0 / qpmax=69:69:69 / qpstep=4 / cplxblur=20.0 / qblur=0.5 / ip_ratio=1.40 / pb_ratio=1.30 / aq=2:0.80 / aq-sensitivity=10.00 / aq-factor=1.00:1.00:1.00 / aq2=0 / aq3=0
Default : Да
Forced : Да

Аудио #1
Идентификатор : 2
Формат : AC-3
Формат/Информация : Audio Coding 3
Расширение режима : CM (complete main)
Параметр Endianness формата : Big
Идентификатор кодека : A_AC3
Продолжительность : 1 ч. 38 м.
Вид битрейта : Постоянный
Битрейт : 448 Кбит/сек
Каналы : 6 каналов
Расположение каналов : Front: L C R, Side: L R, LFE
Частота : 48,0 КГц
Битовая глубина : 16 бит
Метод сжатия : С потерями
Размер потока : 315 Мбайт (4%)
Заголовок : Dub
Язык : Russian
Default : Да
Forced : Да

Аудио #2
Идентификатор : 3
Формат : DTS
Формат/Информация : Digital Theater Systems
Режим : 16
Параметр Endianness формата : Big
Идентификатор кодека : A_DTS
Продолжительность : 1 ч. 38 м.
Вид битрейта : Постоянный
Битрейт : 1509 Кбит/сек
Каналы : 6 каналов
Расположение каналов : Front: L C R, Side: L R, LFE
Частота : 48,0 КГц
Битовая глубина : 16 бит
Метод сжатия : С потерями
Размер потока : 1,04 Гбайт (14%)
Заголовок : MVO
Язык : Russian
Default : Нет
Forced : Нет

Аудио #3
Идентификатор : 4
Формат : DTS
Формат/Информация : Digital Theater Systems
Режим : 16
Параметр Endianness формата : Big
Идентификатор кодека : A_DTS
Продолжительность : 1 ч. 38 м.
Вид битрейта : Постоянный
Битрейт : 755 Кбит/сек
Каналы : 6 каналов
Расположение каналов : Front: L C R, Side: L R, LFE
Частота : 48,0 КГц
Битовая глубина : 24 бит
Метод сжатия : С потерями
Размер потока : 530 Мбайт (7%)
Заголовок : Немахов
Язык : Russian
Default : Нет
Forced : Нет

Аудио #4
Идентификатор : 5
Формат : AC-3
Формат/Информация : Audio Coding 3
Расширение режима : CM (complete main)
Параметр Endianness формата : Big
Идентификатор кодека : A_AC3
Продолжительность : 1 ч. 38 м.
Вид битрейта : Постоянный
Битрейт : 384 Кбит/сек
Каналы : 6 каналов
Расположение каналов : Front: L C R, Side: L R, LFE
Частота : 48,0 КГц
Битовая глубина : 16 бит
Метод сжатия : С потерями
Размер потока : 270 Мбайт (4%)
Заголовок : MVO
Язык : Ukrainian
Default : Нет
Forced : Нет

Аудио #5
Идентификатор : 6
Формат : DTS
Формат/Информация : Digital Theater Systems
Режим : 16
Параметр Endianness формата : Big
Идентификатор кодека : A_DTS
Продолжительность : 1 ч. 38 м.
Вид битрейта : Постоянный
Битрейт : 1509 Кбит/сек
Каналы : 6 каналов
Расположение каналов : Front: L C R, Side: L R, LFE
Частота : 48,0 КГц
Битовая глубина : 16 бит
Метод сжатия : С потерями
Размер потока : 1,04 Гбайт (14%)
Язык : English
Default : Нет
Forced : Нет

Текст #1
Идентификатор : 7
Формат : UTF-8
Идентификатор кодека : S_TEXT/UTF8
Идентификатор кодека/Информация : UTF-8 Plain Text
Язык : Russian
Default : Нет
Forced : Нет

Текст #2
Идентификатор : 8
Формат : UTF-8
Идентификатор кодека : S_TEXT/UTF8
Идентификатор кодека/Информация : UTF-8 Plain Text
Язык : English
Default : Нет
Forced : Нет

Меню
00:00:00.000 : en:Chapter 01
00:03:35.340 : en:Chapter 02
00:07:20.857 : en:Chapter 03
00:12:16.777 : en:Chapter 04
00:15:22.463 : en:Chapter 05
00:19:56.570 : en:Chapter 06
00:24:27.465 : en:Chapter 07
00:28:09.771 : en:Chapter 08
00:34:07.420 : en:Chapter 09
00:38:14.000 : en:Chapter 10
00:43:04.748 : en:Chapter 11
00:46:24.489 : en:Chapter 12
00:48:18.812 : en:Chapter 13
00:55:12.309 : en:Chapter 14
00:59:44.831 : en:Chapter 15
01:04:44.046 : en:Chapter 16
01:08:43.869 : en:Chapter 17
01:12:24.673 : en:Chapter 18
01:15:43.247 : en:Chapter 19
01:20:08.220 : en:Chapter 20
01:23:56.906 : en:Chapter 21
01:29:09.344 : en:Chapter 22


Релиз:
загрузка...
Правила, инструкции, FAQ!!!
Торрент  Добавлен [08 фев 2014, 00:51] Скачать торрент
Скачать торрент
[ Размер 18.86 КБ / Просмотров 4 ]

Статус  
 
Размер  7.28 ГБ
Приватный: Нет (DHT включён)
.torrent скачан  20
Как залить торрент? | Как скачать Torrent? | Как смотреть и слушать онлайн?  


     Отправить личное сообщение
   
Страница 1 из 1
Показать сообщения за:  Поле сортировки  
Начать новую тему Ответить на тему

   Похожие торренты   Автор   Ответы   Просмотры   Последнее сообщение 
В этой теме нет новых непрочитанных сообщений. Скачать торрент Проверен Посейдон / Poseidon (2006) BDRip 1080p

в форуме 720p | 1080p, Размер: 10.01 ГБ, Здоровье: 100%

Anonymous

0
29|17

97
60

03 апр 2015, 00:04

Anonymous Перейти к последнему сообщению

В этой теме нет новых непрочитанных сообщений. Скачать торрент Посейдон / Poseidon (Вольфганг Петерсен / Wolfgang Petersen) [2006 г., Триллер, приключения, боевик, BDRip] Dub + Original

в форуме Триллеры, Размер: 1.72 ГБ, Здоровье: 100%

Anonymous

0
85|17

64
1

13 фев 2014, 11:37

Anonymous Перейти к последнему сообщению

В этой теме нет новых непрочитанных сообщений. Скачать торрент Проверен Пол Галлико | Посейдон [2006] [FB2]

в форуме Детективы и Боевики, Размер: 1.13 МБ, Здоровье: 100%

Anonymous

0
1|1

29
0

20 сен 2014, 21:35

Anonymous Перейти к последнему сообщению

В этой теме нет новых непрочитанных сообщений. Скачать торрент Проверен Приключения «Посейдона» / The Poseidon Adventure (1972) BDRip

в форуме Приключения, Размер: 2.18 ГБ, Здоровье: 100%

Anonymous

0
5|0

142
33

01 авг 2014, 17:30

Anonymous Перейти к последнему сообщению

В этой теме нет новых непрочитанных сообщений. Скачать торрент Проверен 300 спартанцев / 300 (2006) BDRip 720p | D

в форуме 720p | 1080p, Размер: 5.11 ГБ, Здоровье: 100%

Anonymous

0
23|0

37
238

19 май 2014, 13:03

Anonymous Перейти к последнему сообщению



Сейчас этот форум просматривают: нет зарегистрированных пользователей и гости: 3


Вы не можете начинать темы
Вы не можете отвечать на сообщения
Вы не можете редактировать свои сообщения
Вы не можете удалять свои сообщения
Вы не можете добавлять вложения

Перейти:  

!ВНИМАНИЕ!
 Ресурс не предоставляет электронные версии произведений, а занимается лишь коллекционированием и каталогизацией ссылок, присылаемых и публикуемых на форуме нашими читателями. Если вы являетесь правообладателем какого-либо представленного материала и не желаете чтобы ссылка на него находилась в нашем каталоге, свяжитесь с нами и мы незамедлительно удалим её. Файлы для обмена на трекере предоставлены пользователями сайта, и администрация не несёт ответственности за их содержание. Просьба не заливать файлы, защищенные авторскими правами, а также файлы нелегального содержания!