На всех торрентах на трекере установлена скидка на скачивание в размере 100 процентов(а).
 Возможность скачивания торрента НЕ зависит от ограничений при низком ратио, низком аплоаде, требуемом ратио или требуемом аплоаде.


Начать новую тему Ответить на тему
Статистика раздачи
Размер: 4.33 ГБ | Добавлен: 07 фев 2014, 11:40 | Скачали: 0
Сидеров: 0  [0 байт/сек]    Личеров: 0  [0 байт/сек]
Пред. тема | След. тема 

Автор
Сообщение

СообщениеДобавлено: 07 фев 2014, 11:40 

Серьёзный человек / A Serious Man
Год выпуска: 2009
Страна: США, Франция, Великобритания
Жанр: драма
Продолжительность: 01:45:36
Перевод:
- профессиональный (двухголосый закадровый, CP Digital, Blu-Ray)
- авторский (одноголосый закадровый, Сербин)
- авторский (одноголосый закадровый, Филонов)
Русские субтитры: есть

Режиссер: Итэн Коэн / Ethan Coen, Джоэл Коэн / Joel Coen

В ролях: Майкл Сталберг, Ричард Кайнд, Фред Меламед, Сари Ленник, Аарон Вульф, Джессика МакМанус, Питер Брейтмайер, Брент Брауншвейг, Дэвид Кенг, Бенджи Портн

Описание: Главным героем фильма «Серьёзный человек» является Ларри Гопник, профессор еврейского колледжа на Среднем Западе в 1967 году. Ларри начинает задаваться вопросом о ценности жизни, когда он обнаруживает, что его жена хочет развестись. У него также проблемы с его детьми, ворующими деньги из его кошелька и его братом-бездельником, который поселился у него, потому что у него нет ни денег, ни зрелости для того, чтобы жить своей собственной жизнью.
Ко всему этому добавляются получаемые им враждебные анонимные записки, которые угрожают его работе в школе, студент-выпускник, который хочет любыми способами получить необходимую ему оценку и привлекательная соседка, которая терзает Ларри, принимая обнажённой солнечные ванны. И немного удивляет, почему Ларри стремится решать свои экзистенциальные проблемы, обратившись к священникам, которые, как он надеется, помогут ему стать более строгим и любящим.
Рейтинг MPAA:





Sample
Интересные факты о фильме
    Действие фильма разворачивается в 1967 году. В фильме говорится, что жена Ларри — Джудит Гопник нанимает контору «Такмен Марш». Эту же контору нанимает Сэнди Фаррер в предыдущем фильме братьев Коэн «После прочтения сжечь», действие которого разворачивается в 2008 году.
  • В финальных титрах можно заметить ироничную фразу: «При съемках фильма ни один еврей не пострадал».
Награды и номинации
Оскар, 2010 год

Номинации (2):
Лучший фильм
Лучший сценарий

Золотой глобус, 2010 год

Номинации (1):
Лучшая мужская роль (комедия или мюзикл) (Майкл Стулбарг)

Британская академия, 2010 год

Номинации (1):
Лучший оригинальный сценарий


Качество: BDRip-AVC
Формат: MKV
Видео кодек: H.264
Аудио кодек: AC3
Видео: 1152x624 (1.85:1), 4086 kbps, 23.976 fps
Аудио №1: Russian, AC3, 6ch, 48 kHz, 448 kbps (Двухголосый, CP Digital)
Аудио №2: Russian, AC3, 6ch, 48 kHz, 448 kbps (Одноголосый, Сербин)
Аудио №3: Russian, AC3, 6ch, 48 kHz, 448 kbps (Одноголосый, Филонов)
Аудио №4: English, AC3, 6ch, 48 kHz, 448 kbps (Оригинал)
Субтитры №1: Russian, SRT, Blu-ray
Субтитры №2: Russian, SRT, Антон Тарасенко
Субтитры №3: English, SRT, Blu-ray


MediaInfo
Format : Matroska
File size : 4.33 GiB
Duration : 1h 45mn
Overall bit rate : 5 876 Kbps
Movie name : A Serious Man (2009) BDRip
Encoded date : UTC 2011-09-17 15:50:18
Writing application : mkvmerge v4.8.0 ('I Got The...') built on May 24 2011 03:12:58
Writing library : libebml v1.2.0 + libmatroska v1.1.0
Cover : Yes

Video
ID : 1
Format : AVC
Format/Info : Advanced Video Codec
Format profile : High@L4.0
Format settings, CABAC : Yes
Format settings, ReFrames : 10 frames
Codec ID : V_MPEG4/ISO/AVC
Duration : 1h 45mn
Bit rate : 3 967 Kbps
Width : 1 152 pixels
Height : 624 pixels
Display aspect ratio : 16:9
Frame rate : 23.976 fps
Color space : YUV
Chroma subsampling : 4:2:0
Bit depth : 8 bits
Scan type : Progressive
Bits/(Pixel*Frame) : 0.230
Stream size : 2.93 GiB (68%)
Writing library : x264 core 116 r2074kMod 2641b9e
Encoding settings : cabac=1 / ref=10 / deblock=1:-3:-2 / analyse=0x3:0x133 / me=umh / subme=11 / psy=1 / fade_compensate=0.00 / psy_rd=0.90:0.03 / mixed_ref=1 / me_range=32 / chroma_me=1 / trellis=2 / 8x8dct=1 / cqm=0 / deadzone=21,11 / fast_pskip=1 / chroma_qp_offset=-3 / threads=6 / sliced_threads=0 / nr=0 / decimate=1 / interlaced=0 / bluray_compat=0 / constrained_intra=0 / bframes=10 / b_pyramid=2 / b_adapt=2 / b_bias=0 / direct=1 / weightb=1 / open_gop=0 / weightp=2 / keyint=250 / keyint_min=23 / scenecut=40 / intra_refresh=0 / rc=crf / mbtree=0 / crf=17.8000 / qcomp=0.65 / qpmin=0 / qpmax=69 / qpstep=4 / ip_ratio=1.40 / pb_ratio=1.20 / aq=3:0.70
Language : English
Matrix coefficients : BT.709-5, BT.1361, IEC 61966-2-4 709, SMPTE RP177

Audio #1
ID : 2
Format : AC-3
Format/Info : Audio Coding 3
Mode extension : CM (complete main)
Codec ID : A_AC3
Duration : 1h 45mn
Bit rate mode : Constant
Bit rate : 448 Kbps
Channel(s) : 6 channels
Channel positions : Front: L C R, Side: L R, LFE
Sampling rate : 48.0 KHz
Bit depth : 16 bits
Compression mode : Lossy
Stream size : 338 MiB (8%)
Title : DVO (CP Digital)
Language : Russian

Audio #2
ID : 3
Format : AC-3
Format/Info : Audio Coding 3
Mode extension : CM (complete main)
Codec ID : A_AC3
Duration : 1h 45mn
Bit rate mode : Constant
Bit rate : 448 Kbps
Channel(s) : 6 channels
Channel positions : Front: L C R, Side: L R, LFE
Sampling rate : 48.0 KHz
Bit depth : 16 bits
Compression mode : Lossy
Stream size : 338 MiB (8%)
Title : AVO (Serbin)
Language : Russian

Audio #3
ID : 4
Format : AC-3
Format/Info : Audio Coding 3
Mode extension : CM (complete main)
Codec ID : A_AC3
Duration : 1h 45mn
Bit rate mode : Constant
Bit rate : 448 Kbps
Channel(s) : 6 channels
Channel positions : Front: L C R, Side: L R, LFE
Sampling rate : 48.0 KHz
Bit depth : 16 bits
Compression mode : Lossy
Stream size : 338 MiB (8%)
Title : AVO (Filonov)
Language : Russian

Audio #4
ID : 5
Format : AC-3
Format/Info : Audio Coding 3
Mode extension : CM (complete main)
Codec ID : A_AC3
Duration : 1h 45mn
Bit rate mode : Constant
Bit rate : 448 Kbps
Channel(s) : 6 channels
Channel positions : Front: L C R, Side: L R, LFE
Sampling rate : 48.0 KHz
Bit depth : 16 bits
Compression mode : Lossy
Stream size : 338 MiB (8%)
Title : Original
Language : English

Text #1
ID : 6
Format : UTF-8
Codec ID : S_TEXT/UTF8
Codec ID/Info : UTF-8 Plain Text
Title : Blu-ray
Language : Russian

Text #2
ID : 7
Format : UTF-8
Codec ID : S_TEXT/UTF8
Codec ID/Info : UTF-8 Plain Text
Title : Taracenko Anton
Language : Russian

Text #3
ID : 8
Format : UTF-8
Codec ID : S_TEXT/UTF8
Codec ID/Info : UTF-8 Plain Text
Language : English

Menu
00:00:00.000 : en:Cursed (Main Titles)
00:09:19.224 : en:In Good Health
00:18:33.779 : en:Family Life
00:19:50.355 : en:Let's Talk Divorce
00:22:47.324 : en:Consequences
00:28:55.650 : en:Fuzzy Reception
00:32:23.690 : en:Practicalities
00:39:28.866 : en:Have Faith
00:43:35.154 : en:The First Rabbi
00:50:36.366 : en:Death Around the Corner
00:55:52.181 : en:The Second Rabbi
01:03:11.078 : en:Simply Disappear
01:09:11.604 : en:Nothing Adds Up
01:11:25.738 : en:New Freedoms
01:16:20.993 : en:Some Good News
01:21:03.483 : en:Marshak
01:25:05.975 : en:Can't Escape
01:27:39.379 : en:Be a Good Boy
01:37:21.042 : en:It's Darkest Before the Storm
01:40:10.504 : en:End Titles
Bitrate Viewer


загрузка...
Правила, инструкции, FAQ!!!
Торрент  Добавлен [07 фев 2014, 11:40] Скачать торрент
Скачать торрент
[ Размер 22.16 КБ / Просмотров 7 ]

Статус  
 
Размер  4.33 ГБ
Приватный: Нет (DHT включён)
.torrent скачан  0
Как залить торрент? | Как скачать Torrent? | Как смотреть и слушать онлайн?  


     Отправить личное сообщение
   
Страница 1 из 1
Показать сообщения за:  Поле сортировки  
Начать новую тему Ответить на тему

   Похожие торренты   Автор   Ответы   Просмотры   Последнее сообщение 
В этой теме нет новых непрочитанных сообщений. Скачать торрент Серьёзный человек / A Serious Man (Итэн Коэн / Ethan Coen, Джоэл Коэн / Joel Coen) [2009 г., драма, BDRip-AVC Hi10P] DVO (CP Digital) + AVO (Сербин) + AVO (Филонов) + Original + sub (Rus, Eng)

в форуме 720p | 1080p, Размер: 2.87 ГБ, Здоровье: 100%

Anonymous

0
88|11

21
1

16 фев 2014, 13:08

Anonymous Перейти к последнему сообщению

В этой теме нет новых непрочитанных сообщений. Скачать торрент Серьёзный человек / A serious man (Итэн Коэн / Ethan Coen, Джоэл Коэн / Joel Coen) [2009 г., драма, HDRip]

в форуме Драмы, Мелодрамы, Размер: 1.45 ГБ, Здоровье: 0%

Anonymous

0
0|0

23
1

12 фев 2014, 11:46

Anonymous Перейти к последнему сообщению

В этой теме нет новых непрочитанных сообщений. Скачать торрент После прочтения сжечь / Burn After Reading (Итэн Коэн / Ethan Coen, Джоэл Коэн / Joel Coen) [2008 г., комедия, драма, криминал, BDRip-AVC] Dub + AVO (Сербин) + Original + Sub (Rus, Eng)

в форуме 720p | 1080p, Размер: 2.91 ГБ, Здоровье: 100%

Anonymous

0
34|11

38
0

12 фев 2014, 08:15

Anonymous Перейти к последнему сообщению

В этой теме нет новых непрочитанных сообщений. Скачать торрент Старикам тут не место / No Country for Old Men (Итэн Коэн / Ethan Coen, Джоэл Коэн / Joel Coen) [2007 г., триллер, драма, вестерн, криминал, BDRip-AVC] Dub + Original + Subs (Rus, Eng, Bul, Ukr)

в форуме 720p | 1080p, Размер: 2.01 ГБ, Здоровье: 100%

Anonymous

0
34|11

28
0

12 фев 2014, 11:44

Anonymous Перейти к последнему сообщению

В этой теме нет новых непрочитанных сообщений. Скачать торрент Проверен [iPhone] Железная хватка / True Grit (Итэн Коэн, Джоэл Коэн / Ethan Coen, Joel Coen) [2010, драма, приключения, вестерн, BDRip, 720x320] Rus, Eng + Subs (Rus, Eng)

в форуме Фильмы для iPod, iPhone, iPad, Размер: 1.13 ГБ, Здоровье: 100%

Гость

0
2|1

30
0

18 май 2015, 10:37

Гость Перейти к последнему сообщению



Сейчас этот форум просматривают: нет зарегистрированных пользователей и гости: 1


Вы не можете начинать темы
Вы не можете отвечать на сообщения
Вы не можете редактировать свои сообщения
Вы не можете удалять свои сообщения
Вы не можете добавлять вложения

Перейти:  

!ВНИМАНИЕ!
 Ресурс не предоставляет электронные версии произведений, а занимается лишь коллекционированием и каталогизацией ссылок, присылаемых и публикуемых на форуме нашими читателями. Если вы являетесь правообладателем какого-либо представленного материала и не желаете чтобы ссылка на него находилась в нашем каталоге, свяжитесь с нами и мы незамедлительно удалим её. Файлы для обмена на трекере предоставлены пользователями сайта, и администрация не несёт ответственности за их содержание. Просьба не заливать файлы, защищенные авторскими правами, а также файлы нелегального содержания!