На всех торрентах на трекере установлена скидка на скачивание в размере 100 процентов(а).
 Возможность скачивания торрента НЕ зависит от ограничений при низком ратио, низком аплоаде, требуемом ратио или требуемом аплоаде.


Начать новую тему Ответить на тему
Статистика раздачи
Размер: 2.86 ГБ | Добавлен: 07 фев 2014, 11:40 | Скачали: 0
Сидеров: 1  [0 байт/сек]    Личеров: 0  [0 байт/сек]
Пред. тема | След. тема 

Автор
Сообщение

СообщениеДобавлено: 07 фев 2014, 11:40 

Год выпуска: 2010
Страна: США
Жанр: боевик, триллер, драма, приключения, вестерн
Продолжительность: 01:57:36
Перевод: Профессиональный (дублированный) + Авторский (А.Ю.Гаврилов)
Русские субтитры: есть (плюс английские)

Режиссер: Альберт Хьюз, Аллен Хьюз / Albert Hughes, Allen Hughes

В ролях: Дензел Вашингтон, Гари Олдман, Мила Кунис, Рэй Стивенсон, Дженнифер Билз, Ивэн Джонс, Джо Пинг, Фрэнсис Де Ла Тур, Майкл Гэмбон, Том Уэйтс...

Описание: После вселенской катастрофы Америка превратилась в выжженную пустыню. По бескрайним дорогам, кишащим бандами, враждующими между собой за воду и еду, странствует мудрый Илай. Однажды он прибывает в мрачные края, где когда-то была цветущая Калифорния, а теперь это сущий ад, где бесчинствует тиран Карнеги.



Бюджет: $80 000 000
Источник: BDRemux

Качество: BDRip-AVC
Формат: MKV
Видео кодек: H.264
Аудио кодек: AC3
Видео: 1248 x 520 (2.4:1), 23.976 fps, H.264 ~2001 kbps avg, 0.124 bit/pixel
Аудио:
Русский 48 kHz, AC3, 6 ch, 384.00 kbps Constant (Дублированный),
Русский 48 kHz, AC3, 6 ch, 448.00 kbps Constant (Авторский, А.Ю.Гаврилов),
Английский 48 kHz, AC3, 6 ch, 448.00 kbps Constant,
Английский 48 kHz, AC3, 2 ch, 192.00 kbps Constant (Комментарий режиссера)
Субтитры: русские, английские

MediaInfo
General
Complete name : D:\SEND\Фильмы\Kniga.Ilaya.2010.D\Kniga.Ilaya.2010.D.A.BDRip-AVC.mkv
Format : Matroska
File size : 2.86 GiB
Duration : 1h 57mn
Overall bit rate : 3 476 Kbps
Movie name : avproh
Encoded date : UTC 2010-06-19 04:28:21
Writing application : mkvmerge v4.0.0 ('The Stars were mine') сборка от Jun 6 2010 16:18:42
Writing library : libebml v1.0.0 + libmatroska v1.0.0

Video
ID : 1
Format : AVC
Format/Info : Advanced Video Codec
Format profile : High@L4.1
Format settings, CABAC : Yes
Format settings, ReFrames : 11 frames
Muxing mode : Container profile=Unknown@4.1
Codec ID : V_MPEG4/ISO/AVC
Duration : 1h 57mn
Bit rate : 2 001 Kbps
Width : 1 248 pixels
Height : 520 pixels
Display aspect ratio : 2.40:1
Frame rate : 23.976 fps
Color space : YUV
Chroma subsampling : 4:2:0
Bit depth : 8 bits
Scan type : Progressive
Bits/(Pixel*Frame) : 0.129
Stream size : 1.59 GiB (56%)
Writing library : x264 core 98 r1629 2e81ce1
Encoding settings : cabac=1 / ref=11 / deblock=1:-2:-1 / analyse=0x3:0x113 / me=umh / subme=9 / psy=1 / psy_rd=1.00:0.10 / mixed_ref=1 / me_range=32 / chroma_me=1 / trellis=1 / 8x8dct=1 / cqm=0 / deadzone=21,11 / fast_pskip=1 / chroma_qp_offset=-3 / threads=4 / sliced_threads=0 / nr=0 / decimate=1 / interlaced=0 / constrained_intra=0 / bframes=6 / b_pyramid=2 / b_adapt=1 / b_bias=0 / direct=3 / weightb=1 / weightp=2 / keyint=250 / keyint_min=25 / scenecut=40 / intra_refresh=0 / rc_lookahead=80 / rc=2pass / mbtree=1 / bitrate=2001 / ratetol=1.0 / qcomp=0.60 / qpmin=10 / qpmax=51 / qpstep=4 / cplxblur=20.0 / qblur=0.5 / ip_ratio=1.40 / aq=1:1.00

Audio #1
ID : 2
Format : AC-3
Format/Info : Audio Coding 3
Mode extension : CM (complete main)
Codec ID : A_AC3
Duration : 1h 57mn
Bit rate mode : Constant
Bit rate : 384 Kbps
Channel(s) : 6 channels
Channel positions : Front: L C R, Side: L R, LFE
Sampling rate : 48.0 KHz
Stream size : 323 MiB (11%)
Title : AC3 5.1 384 kbps Dub
Language : Russian

Audio #2
ID : 3
Format : AC-3
Format/Info : Audio Coding 3
Mode extension : CM (complete main)
Codec ID : A_AC3
Duration : 1h 57mn
Bit rate mode : Constant
Bit rate : 448 Kbps
Channel(s) : 6 channels
Channel positions : Front: L C R, Side: L R, LFE
Sampling rate : 48.0 KHz
Stream size : 377 MiB (13%)
Title : AC3 5.1 448 kbps AVO (Gavrilov)
Language : Russian

Audio #3
ID : 4
Format : AC-3
Format/Info : Audio Coding 3
Mode extension : CM (complete main)
Codec ID : A_AC3
Duration : 1h 57mn
Bit rate mode : Constant
Bit rate : 448 Kbps
Channel(s) : 6 channels
Channel positions : Front: L C R, Side: L R, LFE
Sampling rate : 48.0 KHz
Stream size : 377 MiB (13%)
Title : AC3 5.1 448 kbps Eng

Audio #4
ID : 5
Format : AC-3
Format/Info : Audio Coding 3
Mode extension : CM (complete main)
Codec ID : A_AC3
Duration : 1h 57mn
Bit rate mode : Constant
Bit rate : 192 Kbps
Channel(s) : 2 channels
Channel positions : Front: L R
Sampling rate : 48.0 KHz
Stream size : 162 MiB (6%)
Title : AC3 2.0 192 kbps DC

Text #1
ID : 6
Format : UTF-8
Codec ID : S_TEXT/UTF8
Codec ID/Info : UTF-8 Plain Text
Title : Sub Rus
Language : Russian

Text #2
ID : 7
Format : UTF-8
Codec ID : S_TEXT/UTF8
Codec ID/Info : UTF-8 Plain Text
Title : Sub Eng

загрузка...
Правила, инструкции, FAQ!!!
Торрент  Добавлен [07 фев 2014, 11:40] Скачать торрент
Скачать торрент
[ Размер 14.76 КБ / Просмотров 7 ]

Статус  
 
Размер  2.86 ГБ
Приватный: Нет (DHT включён)
.torrent скачан  0
Как залить торрент? | Как скачать Torrent? | Как смотреть и слушать онлайн?  


     Отправить личное сообщение
   
Страница 1 из 1
Показать сообщения за:  Поле сортировки  
Начать новую тему Ответить на тему

   Похожие торренты   Автор   Ответы   Просмотры   Последнее сообщение 
В этой теме нет новых непрочитанных сообщений. Скачать торрент Проверен [iPad] Книга Илая / The Book of Eli (Альберт Хьюз / Albert Hughes, Аллен Хьюз / Allen Hughes) [2010, боевик, триллер, драма, BDRip, 720p]

в форуме Фильмы для iPod, iPhone, iPad, Размер: 3.11 ГБ, Здоровье: 100%

Anonymous

0
14|4

28
0

11 май 2015, 01:40

Anonymous Перейти к последнему сообщению

В этой теме нет новых непрочитанных сообщений. Скачать торрент Из ада / From Hell (Альберт Хьюз / Albert Hughes, Аллен Хьюз / Allen Hughes) [2001 г., Ужасы, триллер, криминал, мистика, BDRip]

в форуме Ужасы, Размер: 2.51 ГБ, Здоровье: 0%

Anonymous

0
0|0

29
0

25 апр 2014, 08:54

Anonymous Перейти к последнему сообщению

В этой теме нет новых непрочитанных сообщений. Скачать торрент Нью-Йорк, я люблю тебя / New York, I Love You (Фатих Акин / Fatih Akin, Иван Атталь / Yvan Attal, Аллен Хьюз / Allen Hughes, Сюндзи Иваи / Shunji Iwai, Вэнь Цзянь / Wen Jiang) [2009, США, драма, мелодра, HDRip] DUB + Original (Eng) + Subs (rus,eng)

в форуме Драмы, Мелодрамы, Размер: 2.18 ГБ, Здоровье: 0%

Anonymous

0
0|0

24
0

16 фев 2014, 13:06

Anonymous Перейти к последнему сообщению

В этой теме нет новых непрочитанных сообщений. Скачать торрент Красный холм / Red Hill (Патрик Хьюз / Patrick Hughes) [2010, Австралия, триллер, драма, криминал, HDRip-AVC, 720p] VO Zamez + Sub rus + original eng

в форуме 720p | 1080p, Размер: 2.37 ГБ, Здоровье: 100%

Anonymous

0
1|0

34
0

13 фев 2014, 06:32

Anonymous Перейти к последнему сообщению

В этой теме нет новых непрочитанных сообщений. Скачать торрент Красный холм / Red Hill (Патрик Хьюз / Patrick Hughes) [2010, триллер, драма, криминал, HDRip] VO (zamez)

в форуме Триллеры, Размер: 1.46 ГБ, Здоровье: 0%

Anonymous

0
0|0

33
0

13 фев 2014, 06:33

Anonymous Перейти к последнему сообщению



Сейчас этот форум просматривают: нет зарегистрированных пользователей и гости: 4


Вы не можете начинать темы
Вы не можете отвечать на сообщения
Вы не можете редактировать свои сообщения
Вы не можете удалять свои сообщения
Вы не можете добавлять вложения

Перейти:  

!ВНИМАНИЕ!
 Ресурс не предоставляет электронные версии произведений, а занимается лишь коллекционированием и каталогизацией ссылок, присылаемых и публикуемых на форуме нашими читателями. Если вы являетесь правообладателем какого-либо представленного материала и не желаете чтобы ссылка на него находилась в нашем каталоге, свяжитесь с нами и мы незамедлительно удалим её. Файлы для обмена на трекере предоставлены пользователями сайта, и администрация не несёт ответственности за их содержание. Просьба не заливать файлы, защищенные авторскими правами, а также файлы нелегального содержания!