На всех торрентах на трекере установлена скидка на скачивание в размере 100 процентов(а).
 Возможность скачивания торрента НЕ зависит от ограничений при низком ратио, низком аплоаде, требуемом ратио или требуемом аплоаде.


Начать новую тему Ответить на тему
Статистика раздачи
Размер: 2.19 ГБ | Добавлен: 07 фев 2014, 11:40 | Скачали: 2
Сидеров: 6  [0 байт/сек]    Личеров: 0  [0 байт/сек]
Пред. тема | След. тема 

Автор
Сообщение

СообщениеДобавлено: 07 фев 2014, 11:40 

Страна: Испания
Жанр: Драма, авантюрно-криминальный экшн
Год выпуска: 2010
Продолжительность: 02:02:46
Перевод: Дублированный
Субтитры: русские, английские

Режиссер: Фернандо Гонзалез Молина

В ролях: Мария Вальверде, Марио Касас, Нереа Камачо, Альваро Сервантес, Диего Мартин, Марина Салас, Клара Сегура, Андреа Дуро, Марсель Борра, Пабло Риверо

Описание: История двух молодых людей, которые принадлежат к разным мирам. Баби — девушка из среднего класса, которая отображает доброту и невинность. Аче — мятежный мальчик, импульсивный, бессознательный, склонный к риску и опасности, ввязывающийся в бесконечные драки и нелегальные гонки на мотоциклах. Это маловероятно, практически невозможно, но их встреча неизбежна, и в этом неистовом путешествии между ними возникает первая большая любовь.





СЭМПЛ

Качество видео: BDRip-AVC ( BDRemux)
Формат видео: MKV

Видео:1116x476 (2.35:1), 24.000 fps, AVC, ~1778 Kbps, 0.139 bits/pixel
Аудио: 48.0 KHz, AC3, 6 ch, 384 Kbps - Dub
Аудио: 48.0 KHz, AC3, 6 ch, 384 Kbps - Esp
MediaInfo
General
Unique ID : 237133619117590855735997222354754449639 (0xB2664616F78D287481AF8104AFB3B0E7)
Complete name : E:\Downloads\3.Metra.nad.ypovnem-2.18.nebachopper887.mkv
Format : Matroska
File size : 2.19 GiB
Duration : 2h 3mn
Overall bit rate : 2 540 Kbps
Movie name : 3.Metra.nad.ypovnem-2.18.nebachopper887
Encoded date : UTC 2012-01-05 13:40:40
Writing application : mkvmerge v4.8.0 ('I Got The...') сборка от May 24 2011 03:12:58
Writing library : libebml v1.2.0 + libmatroska v1.1.0

Video
ID : 1
Format : AVC
Format/Info : Advanced Video Codec
Format profile : High@L4.1
Format settings, CABAC : Yes
Format settings, ReFrames : 10 frames
Codec ID : V_MPEG4/ISO/AVC
Duration : 2h 3mn
Bit rate : 1 778 Kbps
Width : 1 116 pixels
Height : 476 pixels
Display aspect ratio : 2.35:1
Frame rate : 24.000 fps
Color space : YUV
Chroma subsampling : 4:2:0
Bit depth : 8 bits
Scan type : Progressive
Bits/(Pixel*Frame) : 0.139
Stream size : 1.48 GiB (68%)
Title : 3.Metra.nad.ypovnem-2.18.nebachopper887
Writing library : x264 core 116 r2074 2641b9e
Encoding settings : cabac=1 / ref=10 / deblock=1:-2:-1 / analyse=0x3:0x133 / me=umh / subme=11 / psy=1 / psy_rd=1.00:0.10 / mixed_ref=1 / me_range=32 / chroma_me=1 / trellis=2 / 8x8dct=1 / cqm=0 / deadzone=21,11 / fast_pskip=0 / chroma_qp_offset=-3 / threads=12 / sliced_threads=0 / nr=0 / decimate=1 / interlaced=0 / bluray_compat=0 / constrained_intra=0 / bframes=7 / b_pyramid=2 / b_adapt=2 / b_bias=0 / direct=3 / weightb=1 / open_gop=0 / weightp=2 / keyint=250 / keyint_min=24 / scenecut=40 / intra_refresh=0 / rc_lookahead=80 / rc=2pass / mbtree=1 / bitrate=1778 / ratetol=1.0 / qcomp=0.60 / qpmin=0 / qpmax=69 / qpstep=4 / cplxblur=20.0 / qblur=0.5 / ip_ratio=1.40 / aq=1:1.00
Language : English

Audio #1
ID : 2
Format : AC-3
Format/Info : Audio Coding 3
Mode extension : CM (complete main)
Codec ID : A_AC3
Duration : 2h 3mn
Bit rate mode : Constant
Bit rate : 384 Kbps
Channel(s) : 6 channels
Channel positions : Front: L C R, Side: L R, LFE
Sampling rate : 48.0 KHz
Bit depth : 16 bits
Compression mode : Lossy
Stream size : 338 MiB (15%)
Title : Dub

Audio #2
ID : 3
Format : AC-3
Format/Info : Audio Coding 3
Mode extension : CM (complete main)
Codec ID : A_AC3
Duration : 2h 3mn
Bit rate mode : Constant
Bit rate : 384 Kbps
Channel(s) : 6 channels
Channel positions : Front: L C R, Side: L R, LFE
Sampling rate : 48.0 KHz
Bit depth : 16 bits
Compression mode : Lossy
Stream size : 338 MiB (15%)
Title : Esp

Text #1
ID : 4
Format : UTF-8
Codec ID : S_TEXT/UTF8
Codec ID/Info : UTF-8 Plain Text
Title : Русские

Text #2
ID : 5
Format : UTF-8
Codec ID : S_TEXT/UTF8
Codec ID/Info : UTF-8 Plain Text
Title : Русские

Text #3
ID : 6
Format : UTF-8
Codec ID : S_TEXT/UTF8
Codec ID/Info : UTF-8 Plain Text
Title : Английские

загрузка...
Правила, инструкции, FAQ!!!
Торрент  Добавлен [07 фев 2014, 11:40] Скачать торрент
Скачать торрент
[ Размер 11.53 КБ / Просмотров 5 ]

Статус  
 
Размер  2.19 ГБ
Приватный: Нет (DHT включён)
.torrent скачан  2
Как залить торрент? | Как скачать Torrent? | Как смотреть и слушать онлайн?  


     Отправить личное сообщение
   
Страница 1 из 1
Показать сообщения за:  Поле сортировки  
Начать новую тему Ответить на тему

   Похожие торренты   Автор   Ответы   Просмотры   Последнее сообщение 
В этой теме нет новых непрочитанных сообщений. Скачать торрент Три метра над небом / Три метра над уровнем неба / Tres metros sobre el cielo (Фернандо Гонзалез Молина / Fernando González Molina) [2010, Испания, Драма, HDRip] MVO

в форуме Драмы, Мелодрамы, Размер: 1.45 ГБ, Здоровье: 100%

Anonymous

0
1|0

26
1

14 фев 2014, 07:47

Anonymous Перейти к последнему сообщению

В этой теме нет новых непрочитанных сообщений. Скачать торрент Три метра над небом / Три метра над уровнем неба / Tres metros sobre el cielo (Фернандо Гонзалез Молина / Fernando González Molina) [2010, Испания, Драма, HDRip] VO [Voiz]

в форуме Драмы, Мелодрамы, Размер: 2.18 ГБ, Здоровье: 0%

Anonymous

0
0|0

31
0

16 фев 2014, 13:09

Anonymous Перейти к последнему сообщению

В этой теме нет новых непрочитанных сообщений. Скачать торрент Три метра над уровнем неба / Tres metros sobre el cielo (2010) HDRip-AVC | D

в форуме 720p | 1080p, Размер: 745.28 МБ, Здоровье: 0%

Anonymous

0
0|0

18
0

20 янв 2014, 14:00

Anonymous Перейти к последнему сообщению

В этой теме нет новых непрочитанных сообщений. Скачать торрент Три метра над уровнем неба: Я тебя хочу / Tengo ganas de ti (2012) BDRip 1080p

в форуме 720p | 1080p, Размер: 7.95 ГБ, Здоровье: 0%

Anonymous

0
0|0

25
0

10 дек 2013, 09:41

Anonymous Перейти к последнему сообщению

В этой теме нет новых непрочитанных сообщений. Скачать торрент Три метра над небом / Tre metri sopra il cielo (Лука Лучини / Luca Lucini) [2004 г., Мелодрама, DVDRip]

в форуме Драмы, Мелодрамы, Размер: 802.34 МБ, Здоровье: 100%

Anonymous

0
5|1

35
1

28 апр 2014, 22:42

Anonymous Перейти к последнему сообщению



Сейчас этот форум просматривают: нет зарегистрированных пользователей и гости: 2


Вы не можете начинать темы
Вы не можете отвечать на сообщения
Вы не можете редактировать свои сообщения
Вы не можете удалять свои сообщения
Вы не можете добавлять вложения

Перейти:  

!ВНИМАНИЕ!
 Ресурс не предоставляет электронные версии произведений, а занимается лишь коллекционированием и каталогизацией ссылок, присылаемых и публикуемых на форуме нашими читателями. Если вы являетесь правообладателем какого-либо представленного материала и не желаете чтобы ссылка на него находилась в нашем каталоге, свяжитесь с нами и мы незамедлительно удалим её. Файлы для обмена на трекере предоставлены пользователями сайта, и администрация не несёт ответственности за их содержание. Просьба не заливать файлы, защищенные авторскими правами, а также файлы нелегального содержания!