На всех торрентах на трекере установлена скидка на скачивание в размере 100 процентов(а).
 Возможность скачивания торрента НЕ зависит от ограничений при низком ратио, низком аплоаде, требуемом ратио или требуемом аплоаде.


Начать новую тему Ответить на тему
Статистика раздачи
Размер: 15 ГБ | Добавлен: 06 фев 2014, 23:40 | Скачали: 40
Сидеров: 18  [0 байт/сек]    Личеров: 2  [0 байт/сек]
Пред. тема | След. тема 

Автор
Сообщение

СообщениеДобавлено: 06 фев 2014, 23:40 

Название: Троя
Оригинальное название: Troy
Год выхода: 2004
Жанр: Боевик, драма, мелодрама, история
Режиссер: Вольфганг Петерсен

В ролях: Брэд Питт, Эрик Бана, Орландо Блум, Брайан Кокс, Дайан Крюгер, Брендан Глисон, Шон Бин, Джули Кристи, Питер О’Тул, Роуз Бирн, Саффрон Берроуз, Нэйтан Джонс

О фильме:
1193 год до нашей эры. Парис украл прекрасную Елену, жену царя Спарты Менелая. За честь Менелая вступается его брат — царь Агамемнон. Его армия под предводительством Ахиллеса подошла к Трое и взяла город в кровавую осаду, длившуюся долгих десять лет… Два мира будут воевать за честь и власть. Тысячи умрут за славу. И за любовь нация сгорит дотла.



Страна: США, Мальта, Великобритания
Студия: Warner Bros. Pictures Co., Plan B Entertainment, Radiant Productions
Продолжительность: 02:42:48
Перевод: Дублированный + Профессиональный (двухголосый, закадровый) Тусооn-Studiо + Авторский (одноголосый, закадровый) Андрей Гаврилов + Авторский (одноголосый, закадровый) Юрий Живов + Оригинал


Кодек: x264
Качество: BDRip 1080p (источник: Blu-ray Disc / 1080p CEE)
Видео: 1920х796 (2.40:1), 10571 Kbps, 23.976 fps, 0.288 bit/pixel
Аудио #1: 48.0 kHz, AC3 Dolby Digital, 3/2 (L,C,R,l,r) + LFE ch, 640 kbps [Дубляж]
Аудио #2: 48.0 kHz, DTS, 3/2 (L,C,R,l,r) + LFE ch, 1536 kbps, 24 bits [Дубляж] Отдельно на disk.yandex.ru
Аудио #3: 48.0 kHz, AC3 Dolby Digital, 3/2 (L,C,R,l,r) + LFE ch, 448 kbps [Двухголосый, Тусооn-Studiо]
Аудио #4: 48.0 kHz, AC3 Dolby Digital, 3/2 (L,C,R,l,r) + LFE ch, 448 kbps [Авторский, А. Гаврилов]
Аудио #5: 48.0 kHz, AC3 Dolby Digital, 3/2 (L,C,R,l,r) + LFE ch, 448 kbps [Авторский, Ю. Живов]
Аудио #6: 48.0 kHz, AC3 Dolby Digital, 3/2 (L,C,R,l,r) + LFE ch, 640 kbps [Английский]
Субтитры: Русские [форсированные, полные], английские [SDH]

Семпл



x264 [info]: frame I:1788 Avg QP:14.39 size:178973
x264 [info]: frame P:56295 Avg QP:16.73 size: 95374
x264 [info]: frame B:176105 Avg QP:18.42 size: 40957
General
Unique ID : 217017852334926171707176101747296327391 (0xA3441E3712A2BCEB98EA8BC837F856DF)
Complete name : E:Troy.2004.x264.BDRip.1080p.Theatrical.Cut.mkv
Format : Matroska
Format version : Version 2
File size : 15.0 GiB
Duration : 2h 42mn
Overall bit rate : 13.2 Mbps
Encoded date : UTC 2013-10-07 16:41:50
Writing application : mkvmerge v5.8.0 ('No Sleep / Pillow') built on Sep 2 2012 15:37:04
Writing library : libebml v1.2.3 + libmatroska v1.3.0

Video
ID : 1
Format : AVC
Format/Info : Advanced Video Codec
Format profile : High@L4.1
Format settings, CABAC : Yes
Format settings, ReFrames : 5 frames
Codec ID : V_MPEG4/ISO/AVC
Duration : 2h 42mn
Bit rate : 10.6 Mbps
Width : 1 920 pixels
Height : 796 pixels
Display aspect ratio : 2.40:1
Frame rate mode : Constant
Frame rate : 23.976 fps
Color space : YUV
Chroma subsampling : 4:2:0
Bit depth : 8 bits
Scan type : Progressive
Bits/(Pixel*Frame) : 0.288
Stream size : 11.7 GiB (78%)
Writing library : x264 core 138 r2358 9e941d1
Encoding settings : cabac=1 / ref=5 / deblock=1:-3:-3 / analyse=0x3:0x133 / me=tesa / subme=11 / psy=1 / psy_rd=1.00:0.11 / mixed_ref=1 / me_range=32 / chroma_me=1 / trellis=2 / 8x8dct=1 / cqm=0 / deadzone=21,11 / fast_pskip=0 / chroma_qp_offset=-3 / threads=12 / lookahead_threads=1 / sliced_threads=0 / nr=0 / decimate=0 / interlaced=0 / bluray_compat=0 / constrained_intra=0 / bframes=6 / b_pyramid=2 / b_adapt=2 / b_bias=0 / direct=3 / weightb=0 / open_gop=0 / weightp=2 / keyint=240 / keyint_min=23 / scenecut=40 / intra_refresh=0 / rc=2pass / mbtree=0 / bitrate=10571 / ratetol=1.0 / qcomp=0.60 / qpmin=0 / qpmax=69 / qpstep=4 / cplxblur=20.0 / qblur=0.5 / ip_ratio=1.40 / pb_ratio=1.30 / aq=1:1.00
Language : English
Default : Yes
Forced : No

Audio #1
ID : 2
Format : AC-3
Format/Info : Audio Coding 3
Mode extension : CM (complete main)
Format settings, Endianness : Big
Codec ID : A_AC3
Duration : 2h 42mn
Bit rate mode : Constant
Bit rate : 640 Kbps
Channel count : 6 channels
Channel positions : Front: L C R, Side: L R, LFE
Sampling rate : 48.0 KHz
Bit depth : 16 bits
Compression mode : Lossy
Stream size : 745 MiB (5%)
Title : AC3 5.1ch 640 kbps - Дубляж
Language : Russian
Default : Yes
Forced : No

Audio #2
ID : 3
Format : AC-3
Format/Info : Audio Coding 3
Mode extension : CM (complete main)
Format settings, Endianness : Big
Codec ID : A_AC3
Duration : 2h 42mn
Bit rate mode : Constant
Bit rate : 448 Kbps
Channel count : 6 channels
Channel positions : Front: L C R, Side: L R, LFE
Sampling rate : 48.0 KHz
Bit depth : 16 bits
Compression mode : Lossy
Stream size : 522 MiB (3%)
Title : AC3 5.1ch 448 kbps - Двухголосый, Тусооn-Studiо
Language : Russian
Default : No
Forced : No

Audio #3
ID : 4
Format : AC-3
Format/Info : Audio Coding 3
Mode extension : CM (complete main)
Format settings, Endianness : Big
Codec ID : A_AC3
Duration : 2h 42mn
Bit rate mode : Constant
Bit rate : 448 Kbps
Channel count : 6 channels
Channel positions : Front: L C R, Side: L R, LFE
Sampling rate : 48.0 KHz
Bit depth : 16 bits
Compression mode : Lossy
Stream size : 522 MiB (3%)
Title : AC3 5.1ch 448 kbps - Авторский, А. Гаврилов
Language : Russian
Default : No
Forced : No

Audio #4
ID : 5
Format : AC-3
Format/Info : Audio Coding 3
Mode extension : CM (complete main)
Format settings, Endianness : Big
Codec ID : A_AC3
Duration : 2h 42mn
Bit rate mode : Constant
Bit rate : 448 Kbps
Channel count : 6 channels
Channel positions : Front: L C R, Side: L R, LFE
Sampling rate : 48.0 KHz
Bit depth : 16 bits
Compression mode : Lossy
Stream size : 522 MiB (3%)
Title : AC3 5.1ch 448 kbps - Авторский, Ю. Живов
Language : Russian
Default : No
Forced : No

Audio #5
ID : 6
Format : AC-3
Format/Info : Audio Coding 3
Mode extension : CM (complete main)
Format settings, Endianness : Big
Codec ID : A_AC3
Duration : 2h 42mn
Bit rate mode : Constant
Bit rate : 640 Kbps
Channel count : 6 channels
Channel positions : Front: L C R, Side: L R, LFE
Sampling rate : 48.0 KHz
Bit depth : 16 bits
Compression mode : Lossy
Stream size : 745 MiB (5%)
Title : AC3 5.1ch 640 kbps - Английский
Language : English
Default : No
Forced : No

Text #1
ID : 7
Format : UTF-8
Codec ID : S_TEXT/UTF8
Codec ID/Info : UTF-8 Plain Text
Title : Русские [форсированные]
Language : Russian
Default : Yes
Forced : No

Text #2
ID : 8
Format : UTF-8
Codec ID : S_TEXT/UTF8
Codec ID/Info : UTF-8 Plain Text
Title : Русские [полные]
Language : Russian
Default : No
Forced : No

Text #3
ID : 9
Format : UTF-8
Codec ID : S_TEXT/UTF8
Codec ID/Info : UTF-8 Plain Text
Title : Английские [SDH]
Language : English
Default : No
Forced : No

Menu
00:00:00.000 : en:Foreword
00:02:02.747 : en:Awaiting Achilles
00:06:45.363 : en:"Is There No One Else?"
00:09:23.020 : en:Secret Lovers
00:14:33.497 : en:Brothers' Pledges
00:19:27.791 : en:Greatest War
00:21:16.400 : en:Recruiter Odysseus
00:24:24.087 : en:Glory and Doom
00:27:27.103 : en:Royal Welcome
00:30:18.608 : en:They're Coming for Me
00:33:37.640 : en:Immortality Is Yours
00:39:30.659 : en:Beach Combat
00:44:03.599 : en:Too Early in the Day
00:48:55.724 : en:No Need to Fear
00:52:36.945 : en:Spoils of War
00:56:53.701 : en:The Way I Love Helen
01:00:29.250 : en:Power, Not Love
01:03:22.590 : en:Soldiers Obey
01:05:21.876 : en:Gathering Forces
01:09:37.798 : en:Brave Offer
01:12:49.323 : en:Paris vs. Menelaus
01:17:25.432 : en:Battle Cry
01:21:01.815 : en:Greek Retreat
01:23:37.303 : en:Weak Morale
01:27:28.034 : en:Everyone Dies
01:33:06.372 : en:Born for This War
01:37:19.458 : en:Priam's Order
01:41:13.358 : en:Flaming Attack
01:45:36.121 : en:Hector's Adversary
01:47:23.228 : en:Tragic Mistake
01:50:47.265 : en:Night of Torments
01:56:28.439 : en:Summoned to Fight
01:58:52.750 : en:Now You Know
02:02:06.110 : en:Hector vs. Achilles
02:04:13.070 : en:Desecrating the Dead
02:10:05.589 : en:A Father's Plea
02:12:07.377 : en:Achilles' Word
02:15:43.260 : en:Inspirations and Honors
02:18:53.950 : en:Parting Gift
02:22:57.360 : en:Troy Under Siege
02:25:05.488 : en:We Will Be Together
02:28:06.669 : en:Royal Bloodshed
02:31:07.349 : en:Brought to Hell
02:32:58.961 : en:I Walked with Giants
загрузка...
Правила, инструкции, FAQ!!!
Торрент  Добавлен [06 фев 2014, 23:40] Скачать торрент
Скачать торрент
[ Размер 38.05 КБ / Просмотров 9 ]

Статус  
 
Размер  15 ГБ
Приватный: Нет (DHT включён)
.torrent скачан  40
Как залить торрент? | Как скачать Torrent? | Как смотреть и слушать онлайн?  


     Отправить личное сообщение
   
Страница 1 из 1
Показать сообщения за:  Поле сортировки  
Начать новую тему Ответить на тему

   Похожие торренты   Автор   Ответы   Просмотры   Последнее сообщение 
В этой теме нет новых непрочитанных сообщений. Скачать торрент Троя / Troy (Вольфганг Петерсен / Wolfgang Petersen) [2004, США, Великобритания, Мальта, боевик, драма, мелодрама, BDRip] [Театральная версия / Theatrical Cut] DUB

в форуме Боевики, Размер: 1.46 ГБ, Здоровье: 100%

Anonymous

0
30|10

43
0

24 апр 2014, 14:09

Anonymous Перейти к последнему сообщению

В этой теме нет новых непрочитанных сообщений. Скачать торрент Троя / Troy (2004) BDRip 720p | D | Режиссерская версия

в форуме 720p | 1080p, Размер: 5.69 ГБ, Здоровье: 100%

Anonymous

0
60|7

36
157

20 апр 2014, 20:35

Anonymous Перейти к последнему сообщению

В этой теме нет новых непрочитанных сообщений. Скачать торрент Проверен Несносные боссы / Horrible Bosses (2011) BDRip 1080p | Театральная версия

в форуме 720p | 1080p, Размер: 7.74 ГБ, Здоровье: 100%

Anonymous

0
173|15

19
118

04 дек 2014, 17:34

Anonymous Перейти к последнему сообщению

В этой теме нет новых непрочитанных сообщений. Скачать торрент Троя / Troy (Вольфганг Петерсен / Wolfgang Petersen) [2004 г., боевик, драма, мелодрама, история, HDRip-AVC]

в форуме Боевики, Размер: 698.83 МБ, Здоровье: 100%

Anonymous

0
12|4

37
0

22 апр 2014, 11:48

Anonymous Перейти к последнему сообщению

В этой теме нет новых непрочитанных сообщений. Скачать торрент Проверен Забытое / The Forgotten (2004) HDRip | D | Театральная версия

в форуме Фантастика, Фэнтези, Размер: 1.45 ГБ, Здоровье: 100%

Anonymous

0
64|5

69
285

15 ноя 2014, 13:18

Anonymous Перейти к последнему сообщению



Сейчас этот форум просматривают: нет зарегистрированных пользователей и гости: 3


Вы не можете начинать темы
Вы не можете отвечать на сообщения
Вы не можете редактировать свои сообщения
Вы не можете удалять свои сообщения
Вы не можете добавлять вложения

Перейти:  

!ВНИМАНИЕ!
 Ресурс не предоставляет электронные версии произведений, а занимается лишь коллекционированием и каталогизацией ссылок, присылаемых и публикуемых на форуме нашими читателями. Если вы являетесь правообладателем какого-либо представленного материала и не желаете чтобы ссылка на него находилась в нашем каталоге, свяжитесь с нами и мы незамедлительно удалим её. Файлы для обмена на трекере предоставлены пользователями сайта, и администрация не несёт ответственности за их содержание. Просьба не заливать файлы, защищенные авторскими правами, а также файлы нелегального содержания!