На всех торрентах на трекере установлена скидка на скачивание в размере 100 процентов(а).
 Возможность скачивания торрента НЕ зависит от ограничений при низком ратио, низком аплоаде, требуемом ратио или требуемом аплоаде.


Начать новую тему Ответить на тему
Статистика раздачи
Размер: 11.3 ГБ | Добавлен: 06 фев 2014, 18:53 | Скачали: 148
Сидеров: 22  [0 байт/сек]    Личеров: 15  [0 байт/сек]
Пред. тема | След. тема 

Автор
Сообщение

СообщениеДобавлено: 06 фев 2014, 18:53 

Название: Кровавый алмаз
Оригинальное название: Blood Diamond
Год выхода: 2006
Жанр: Боевик, триллер, драма, приключения
Режиссер: Эдвард Цвик

В ролях: Леонардо Ди Каприо, Джимон Хонсу, Дженнифер Коннелли, Caruso Kuypers, Арнольд Вослоу, Энтони Коулмэн, Benu Mabhena, Anointing Lukola, Дэвид Хэрвуд, Бейзил Уоллес, Джими Мистри, Майкл Шин, Marius Weyers, Стивен Коллинз, Ntare Mwine, Bouba Badiane, Ато Эссонда, Перси Матсемела, Ronnie Nyakale, Тони Кгороге, Ник Рединг

О фильме:
1999, Сьерра-Леоне. Гражданская война. Кровь и хаос. В этой безрадостной атмосфере орудует ловкий контрабандист, специальность которого — бриллианты. Ему нет особенного дела, что эти камешки используются для дальнейшего нагнетания межнациональной розни.
Но однажды контрабандист встречает местного рыбака, у которого пропал сын — его, говорят, забрали в «детскую армию», используемую на фронтах гражданской войны. И два разных человека образуют противоестественную коалицию…



Страна: США, Германия
Студия: Warner Bros. Pictures, Virtual Studios, Bedford Falls Productions
Продолжительность: 02:23:22
Перевод: Дублированный |Blu-ray CEE| + Оригинал


Кодек: x264
Качество: BDRip 1080p (источник: HDCLUB / Blu-ray Remux / 1080p)
Видео: 1920х800 (2.40:1), 10000 Kbps, 23.976 fps, 0.272 bit/pixel
Аудио #1: 48.0 kHz, AC3 Dolby Digital, 3/2 (L,C,R,l,r) + LFE ch, 640 kbps [Дубляж, Blu-ray CEE]
Аудио #2: 48.0 kHz, AC3 Dolby Digital, 3/2 (L,C,R,l,r) + LFE ch, 640 kbps [Оригинал, Английский]
Аудио #3: 48.0 kHz, AC3 Dolby Digital, 3/2 (L,C,R,l,r) + LFE ch, 640 kbps [Авторский, А. Гаврилов] Отдельно на disk.yandex.ru
Аудио #4: 48.0 kHz, AC3 Dolby Digital, 3/2 (L,C,R,l,r) + LFE ch, 640 kbps [Авторский, В. Архипов] Отдельно на disk.yandex.ru
Субтитры: Русские, английские

Семпл




x264 [info]: frame I:1825 Avg QP:16.80 size:220325
x264 [info]: frame P:52707 Avg QP:19.48 size: 85969
x264 [info]: frame B:151700 Avg QP:21.40 size: 38339
General
Unique ID : 244426768597187127337149953114941298474 (0xB7E2E21EF92265A0ABDC0D7AB40E172A)
Complete name : E:Blood.Diamond.2006.x264.BDRip.1080p.mkv
Format : Matroska
Format version : Version 4 / Version 2
File size : 11.3 GiB
Duration : 2h 23mn
Overall bit rate : 11.3 Mbps
Encoded date : UTC 2013-03-02 16:10:03
Writing application : mkvmerge v6.0.0 ('Coming Up For Air') built on Jan 20 2013 09:52:00
Writing library : libebml v1.3.0 + libmatroska v1.4.0

Video
ID : 1
Format : AVC
Format/Info : Advanced Video Codec
Format profile : High@L4.1
Format settings, CABAC : Yes
Format settings, ReFrames : 5 frames
Codec ID : V_MPEG4/ISO/AVC
Duration : 2h 23mn
Bit rate : 10 000 Kbps
Width : 1 920 pixels
Height : 800 pixels
Display aspect ratio : 2.40:1
Frame rate mode : Constant
Frame rate : 23.976 fps
Color space : YUV
Chroma subsampling : 4:2:0
Bit depth : 8 bits
Scan type : Progressive
Bits/(Pixel*Frame) : 0.272
Stream size : 9.79 GiB (87%)
Writing library : x264 core 129 r2245 bc13772
Encoding settings : cabac=1 / ref=5 / deblock=1:-3:-3 / analyse=0x3:0x133 / me=tesa / subme=11 / psy=1 / psy_rd=1.00:0.08 / mixed_ref=1 / me_range=32 / chroma_me=1 / trellis=2 / 8x8dct=1 / cqm=0 / deadzone=21,11 / fast_pskip=0 / chroma_qp_offset=-3 / threads=12 / lookahead_threads=2 / sliced_threads=0 / nr=0 / decimate=0 / interlaced=0 / bluray_compat=0 / constrained_intra=0 / bframes=5 / b_pyramid=2 / b_adapt=2 / b_bias=0 / direct=3 / weightb=1 / open_gop=0 / weightp=2 / keyint=240 / keyint_min=23 / scenecut=40 / intra_refresh=0 / rc_lookahead=60 / rc=2pass / mbtree=1 / bitrate=10000 / ratetol=1.0 / qcomp=0.60 / qpmin=0 / qpmax=69 / qpstep=4 / cplxblur=20.0 / qblur=0.5 / ip_ratio=1.40 / aq=1:1.00
Language : English
Default : Yes
Forced : No

Audio #1
ID : 2
Format : AC-3
Format/Info : Audio Coding 3
Mode extension : CM (complete main)
Format settings, Endianness : Big
Codec ID : A_AC3
Duration : 2h 23mn
Bit rate mode : Constant
Bit rate : 640 Kbps
Channel(s) : 6 channels
Channel positions : Front: L C R, Side: L R, LFE
Sampling rate : 48.0 KHz
Bit depth : 16 bits
Compression mode : Lossy
Stream size : 656 MiB (6%)
Title : AC3 5.1ch 640 kbps - Дубляж, Blu-ray CEE
Language : Russian
Default : Yes
Forced : No

Audio #2
ID : 3
Format : AC-3
Format/Info : Audio Coding 3
Mode extension : CM (complete main)
Format settings, Endianness : Big
Codec ID : A_AC3
Duration : 2h 23mn
Bit rate mode : Constant
Bit rate : 640 Kbps
Channel(s) : 6 channels
Channel positions : Front: L C R, Side: L R, LFE
Sampling rate : 48.0 KHz
Bit depth : 16 bits
Compression mode : Lossy
Stream size : 656 MiB (6%)
Title : AC3 5.1ch 640 kbps - Английский
Language : English
Default : No
Forced : No

Text #1
ID : 4
Format : UTF-8
Codec ID : S_TEXT/UTF8
Codec ID/Info : UTF-8 Plain Text
Title : Русские
Language : Russian
Default : No
Forced : No

Text #2
ID : 5
Format : UTF-8
Codec ID : S_TEXT/UTF8
Codec ID/Info : UTF-8 Plain Text
Title : Английские
Language : English
Default : No
Forced : No

Menu
00:00:00.000 : en:Caught in Revolution's Net
00:06:32.559 : en:Conflict Zone Statistics
00:08:57.537 : en:Danny Negotiates
00:14:38.211 : en:Give It to Me
00:18:05.251 : en:Hidden Stones
00:21:56.482 : en:Meeting Maddy
00:27:35.988 : en:Soldiers and Captives
00:30:43.175 : en:Colored By Blood
00:34:48.086 : en:Soldier of the Revolution
00:37:43.761 : en:Get Over Yourself
00:41:20.812 : en:Freetown Siege
00:47:08.659 : en:Shooting to Kill
00:50:19.683 : en:Using Each Other
00:53:58.235 : en:Unhappy Reunion
00:57:38.622 : en:His Only Chance
01:04:04.007 : en:A Little Bang-Bang
01:08:51.461 : en:Drive to Survive
01:11:17.773 : en:Good Intentions
01:16:19.909 : en:Painful History
01:21:18.540 : en:Child Soldier's Target
01:24:27.229 : en:Parting Company
01:29:51.720 : en:After Skinning
01:34:16.985 : en:The Master
01:37:39.187 : en:Searching for Dia
01:43:13.020 : en:A Father Forsaken
01:46:02.856 : en:Kill Them All
01:50:56.984 : en:Deadly Digsite
01:56:07.794 : en:I Am Your Father
01:59:04.471 : en:Take Your Boy Home
02:04:21.454 : en:A Real Story Now
02:08:59.065 : en:Solomon Negotiates
02:12:07.753 : en:Third World's Voice; Coda
02:14:56.922 : en:End Credits
загрузка...
Правила, инструкции, FAQ!!!
Торрент  Добавлен [06 фев 2014, 18:53] Скачать торрент
Скачать торрент
[ Размер 28.76 КБ / Просмотров 3 ]

Статус  
 
Размер  11.3 ГБ
Приватный: Нет (DHT включён)
.torrent скачан  148
Как залить торрент? | Как скачать Torrent? | Как смотреть и слушать онлайн?  


     Отправить личное сообщение
   
Страница 1 из 1
Показать сообщения за:  Поле сортировки  
Начать новую тему Ответить на тему

   Похожие торренты   Автор   Ответы   Просмотры   Последнее сообщение 
В этой теме нет новых непрочитанных сообщений. Скачать торрент Проверен Кровавый алмаз / Blood Diamond (2006) BDRip 720p

в форуме 720p | 1080p, Размер: 7.84 ГБ, Здоровье: 100%

Anonymous

0
24|6

35
136

15 ноя 2014, 15:40

Anonymous Перейти к последнему сообщению

В этой теме нет новых непрочитанных сообщений. Скачать торрент Кровавый Алмаз / Blood Diamond (Эдвард Цвик / Edward Zwick) [2006 г., триллер, драма, приключения, BDRip-AVC] Dub + DVO + 3x AVO + Original + Sub (rus, eng)

в форуме 720p | 1080p, Размер: 6.16 ГБ, Здоровье: 100%

Anonymous

0
36|12

64
0

13 фев 2014, 11:39

Anonymous Перейти к последнему сообщению

В этой теме нет новых непрочитанных сообщений. Скачать торрент Кровавый алмаз / Blood Diamond (2006) HDRip

в форуме Триллеры, Размер: 1.45 ГБ, Здоровье: 100%

Anonymous

0
162|30

29
756

06 фев 2014, 18:36

Anonymous Перейти к последнему сообщению

В этой теме нет новых непрочитанных сообщений. Скачать торрент Кровавый алмаз / Blood Diamond (Эдвард Цвик / Edward Zwick) [2006, США, Германия, Триллер, драма, приключения, HDRip] DUB

в форуме Триллеры, Размер: 859.85 МБ, Здоровье: 100%

Anonymous

0
1|1

37
0

06 фев 2014, 11:43

Anonymous Перейти к последнему сообщению

В этой теме нет новых непрочитанных сообщений. Скачать торрент Кровавый алмаз / Blood Diamond (Эдвард Цвик / Edward Zwick) [2006, Германия, США, Боевик, Драма, Приключения, Триллер, HDRip] DUB

в форуме Боевики, Размер: 1.46 ГБ, Здоровье: 100%

Anonymous

0
1|0

52
0

17 май 2014, 20:08

Anonymous Перейти к последнему сообщению



Сейчас этот форум просматривают: нет зарегистрированных пользователей и гости: 1


Вы не можете начинать темы
Вы не можете отвечать на сообщения
Вы не можете редактировать свои сообщения
Вы не можете удалять свои сообщения
Вы не можете добавлять вложения

Перейти:  

!ВНИМАНИЕ!
 Ресурс не предоставляет электронные версии произведений, а занимается лишь коллекционированием и каталогизацией ссылок, присылаемых и публикуемых на форуме нашими читателями. Если вы являетесь правообладателем какого-либо представленного материала и не желаете чтобы ссылка на него находилась в нашем каталоге, свяжитесь с нами и мы незамедлительно удалим её. Файлы для обмена на трекере предоставлены пользователями сайта, и администрация не несёт ответственности за их содержание. Просьба не заливать файлы, защищенные авторскими правами, а также файлы нелегального содержания!