На всех торрентах на трекере установлена скидка на скачивание в размере 100 процентов(а).
 Возможность скачивания торрента НЕ зависит от ограничений при низком ратио, низком аплоаде, требуемом ратио или требуемом аплоаде.


Начать новую тему Ответить на тему
Статистика раздачи
Размер: 1.46 ГБ | Добавлен: 06 фев 2014, 11:42 | Скачали: 0
Сидеров: 11  [0 байт/сек]    Личеров: 4  [0 байт/сек]
Пред. тема | След. тема 

Автор
Сообщение

СообщениеДобавлено: 06 фев 2014, 11:42 

Год выпуска: 2010
Страна: США
Киностудия: Focus Features
Жанр: драма
Продолжительность: 01:37:43

Перевод: Профессиональный (дублированный) - Лицензия
Cубтитры: русский
Оригинальная аудиодорожка: нет

Режиссер: София Коппола / Sofia Coppola

В ролях: Стивен Дорфф, Эль Фаннинг, Мишель Монахэн, Крис Понтиус, Эрин Уоссон, Александра Уильямс, Натали Фэй, Кристина Шеннон, Карисса Шеннон, Джон Прадхонт...

Роли дублировали: Константин Карасик, Александра Остроухова, Ирина Киреева, Наталья Грачева, Татьяна Шитова

Вкратце: Утопая в оргиях и пьянках, дорогих машинах и поклонницах, прожженная голливудская звезда Джонни Марко ведет распутную жизнь. Забившись в кокон греха и порока, он теряет себя… Однажды в роскошном отеле Шато Мормон его разыскивает его 11-летняя дочь, которую он бросил много лет назад. Джонни привязывается к девочке, а та возвращает его к жизни. Но расставание неизбежно…



Тип релиза: BDRip-AVC c Blu-Ray:
Контейнер: MKV

Видео: 1024x576 (16:9), 23.976 fps, H264 ~1693 kbps avg, 0.120 bit/pixel
Аудио: 48 kHz, AC3, 6 ch, 448.00 kbps Constant
MediaInfo
Общее
Полное имя : Gde-to.2010.D.BDRip-AVC.mkv
Формат : Matroska
Размер файла : 1,46 Гбайт
Продолжительность : 1 ч. 38 м.
Общий поток : 2123 Кбит/сек
Название фильма : avproh
Дата кодирования : UTC 2011-07-03 01:04:57
Программа кодирования : mkvmerge v4.8.0 ('I Got The...') сборка от May 24 2011 03:12:58
Библиотека кодирования : libebml v1.2.0 + libmatroska v1.1.0

Видео
Идентификатор : 1
Формат : AVC
Формат/Информация : Advanced Video Codec
Профиль формата : High@L4.1
Параметр CABAC формата : Да
Параметр ReFrames формата : 11 кадров
Идентификатор кодека : V_MPEG4/ISO/AVC
Продолжительность : 1 ч. 38 м.
Битрейт : 1693 Кбит/сек
Ширина : 1024 пикс.
Высота : 576 пикс.
Соотношение сторон : 16:9
Частота кадров : 23,976 кадр/сек
Цветовое пространство : YUV
Подвыборка цветности : 4:2:0
Битовая глубина : 8 бит
Тип развёртки : Прогрессивная
Бит/(Пиксели*Кадры) : 0.120
Размер потока : 1,13 Гбайт (77%)
Библиотека кодирования : x264 core 114 r1913 5fd3dce
Настройки программы : cabac=1 / ref=11 / deblock=1:-2:-1 / analyse=0x3:0x113 / me=umh / subme=9 / psy=1 / psy_rd=1.00:0.10 / mixed_ref=1 / me_range=32 / chroma_me=1 / trellis=2 / 8x8dct=1 / cqm=0 / deadzone=21,11 / fast_pskip=1 / chroma_qp_offset=-3 / threads=9 / sliced_threads=0 / nr=0 / decimate=1 / interlaced=0 / constrained_intra=0 / bframes=10 / b_pyramid=2 / b_adapt=2 / b_bias=0 / direct=3 / weightb=1 / open_gop=0 / weightp=0 / keyint=250 / keyint_min=23 / scenecut=40 / intra_refresh=0 / rc_lookahead=80 / rc=2pass / mbtree=1 / bitrate=1693 / ratetol=1.0 / qcomp=0.60 / qpmin=0 / qpmax=69 / qpstep=4 / cplxblur=20.0 / qblur=0.5 / ip_ratio=1.40 / aq=2:0.90
Язык : English

Аудио
Идентификатор : 2
Формат : AC-3
Формат/Информация : Audio Coding 3
Расширение режима : CM (complete main)
Идентификатор кодека : A_AC3
Продолжительность : 1 ч. 38 м.
Вид битрейта : Постоянный
Битрейт : 448 Кбит/сек
Каналы : 6 каналов
Расположение каналов : Front: L C R, Side: L R, LFE
Частота : 48,0 КГц
Битовая глубина : 16 бит
Метод сжатия : С потерями
Размер потока : 317 Мбайт (21%)
Язык : Russian

Текст
Идентификатор : 3
Формат : UTF-8
Идентификатор кодека : S_TEXT/UTF8
Идентификатор кодека/Информация : UTF-8 Plain Text
Язык : Russian
Скриншот c названием
Скриншоты
загрузка...
Правила, инструкции, FAQ!!!
Торрент  Добавлен [06 фев 2014, 11:42] Скачать торрент
Скачать торрент
[ Размер 29.9 КБ / Просмотров 18 ]

Статус  
 
Размер  1.46 ГБ
Приватный: Нет (DHT включён)
.torrent скачан  0
Как залить торрент? | Как скачать Torrent? | Как смотреть и слушать онлайн?  


     Отправить личное сообщение
   
Страница 1 из 1
Показать сообщения за:  Поле сортировки  
Начать новую тему Ответить на тему

   Похожие торренты   Автор   Ответы   Просмотры   Последнее сообщение 
В этой теме нет новых непрочитанных сообщений. Скачать торрент Трудности перевода / Lost in Translation (София Коппола / Sofia Coppola) [2003, Драма, мелодрама, комедия, BDRip] Dub

в форуме Драмы, Мелодрамы, Размер: 1.46 ГБ, Здоровье: 100%

Anonymous

0
34|11

28
0

03 фев 2014, 12:29

Anonymous Перейти к последнему сообщению

В этой теме нет новых непрочитанных сообщений. Скачать торрент Проверен [iPad] Трудности перевода / Lost in Translation (София Коппола/ Sofia Coppola) [2003, США, Япония, Драма, мелодрама, комедия, BDRip, 576p] Dub + Original + sub (rus, eng)

в форуме Фильмы для iPod, iPhone, iPad, Размер: 1.77 ГБ, Здоровье: 100%

Anonymous

0
46|15

64
0

18 май 2015, 10:55

Anonymous Перейти к последнему сообщению

В этой теме нет новых непрочитанных сообщений. Скачать торрент Проверен [iPad] Апокалипсис сегодня / Apocalypse Now (Френсис Форд Коппола / Francis Ford Coppola) [1979, драма, военный, BDRip, 576р] [Redux Version] AVO (Goblin), 2xMVO, Original, sub (rus, eng)

в форуме Фильмы для iPod, iPhone, iPad, Размер: 3.92 ГБ, Здоровье: 100%

Гость

0
28|9

36
1

11 май 2015, 01:36

Гость Перейти к последнему сообщению

В этой теме нет новых непрочитанных сообщений. Скачать торрент Проверен The Big 4 (Anthrax, Megadeth, Slayer, Metallica) - Live From Sofia, Bulgaria [2010, Thrash Metal, BDRip 720p]

в форуме Концерты (HD-Video), Размер: 39.44 ГБ, Здоровье: 100%

Anonymous

0
16|5

59
1

01 май 2015, 20:02

Anonymous Перейти к последнему сообщению

В этой теме нет новых непрочитанных сообщений. Скачать торрент Проверен [iPod] Крестный отец 1, 2, 3 / The Godfather 1, 2, 3 (Френсис Форд Коппола) [1972, 1974, 1990, триллер, драма, криминал, DVDRip]

в форуме Фильмы для iPod, iPhone, iPad, Размер: 2.45 ГБ, Здоровье: 100%

Anonymous

0
25|8

122
0

14 май 2015, 00:24

Anonymous Перейти к последнему сообщению



Сейчас этот форум просматривают: нет зарегистрированных пользователей и гости: 3


Вы не можете начинать темы
Вы не можете отвечать на сообщения
Вы не можете редактировать свои сообщения
Вы не можете удалять свои сообщения
Вы не можете добавлять вложения

Перейти:  

!ВНИМАНИЕ!
 Ресурс не предоставляет электронные версии произведений, а занимается лишь коллекционированием и каталогизацией ссылок, присылаемых и публикуемых на форуме нашими читателями. Если вы являетесь правообладателем какого-либо представленного материала и не желаете чтобы ссылка на него находилась в нашем каталоге, свяжитесь с нами и мы незамедлительно удалим её. Файлы для обмена на трекере предоставлены пользователями сайта, и администрация не несёт ответственности за их содержание. Просьба не заливать файлы, защищенные авторскими правами, а также файлы нелегального содержания!