На всех торрентах на трекере установлена скидка на скачивание в размере 100 процентов(а).
 Возможность скачивания торрента НЕ зависит от ограничений при низком ратио, низком аплоаде, требуемом ратио или требуемом аплоаде.


Начать новую тему Ответить на тему
Статистика раздачи
Размер: 4.04 ГБ | Добавлен: 06 фев 2014, 07:32 | Скачали: 0
Сидеров: 0  [0 байт/сек]    Личеров: 0  [0 байт/сек]
Пред. тема | След. тема 

Автор
Сообщение

СообщениеДобавлено: 06 фев 2014, 07:32 

Название: Довольно слов
Оригинальное название: Enough Said
Год выхода: 2013
Жанр: драма, мелодрама, комедия
Режиссер: Николь Холофсенер

В ролях: Джулия Луис-Дрейфус, Джеймс Гандольфини, Кэтрин Кинер, Тони Коллетт, Бен Фэлкуон, Ленни Лофтин, Джессика Ст. Клэр, Кристофер Николас Смит, Трэйси Фэирэуэй

Вкратце
Ева развелась и столкнулась со сложным моментом в жизни — что делать дальше? Она знакомится с другим обаятельным мужчиной, который оказывается бывшим мужем женщины, которая всегда была для нее идеалом.



Страна: США
Производство: Fox Searchlight Pictures, Likely Story
Продолжительность: 01:33:00
Перевод: Профессиональный (многоголосый) [iTunes]


Качество: BDRip 720p
Формат: MKV
Видео: AVC, 1280x692 (1.85:1) at 23.976 fps, AVC at 5382 kbps avg, 0.253 bit/pixel
Аудио 1: Русский / AC3 / 6ch / 384 kbps | iTunes
Аудио 2: Английский / AC3 / 6ch / 448 kbps | Original
Дополнительно: Сохранены оригинальные чаптеры как на Blu-Ray






General
Unique ID : 172749718222667938207524566262656469848 (0x81F662B1803D6474800ABA77CDE70B58)
Complete name : H:Enough.Said.2013.BD.720.Hot-Film.mkv
Format : Matroska
Format version : Version 2
File size : 4.04 GiB
Duration : 1h 32mn
Overall bit rate : 6 215 Kbps
Encoded date : UTC 2014-02-05 21:12:35
Writing application : mkvmerge v5.8.0 ('No Sleep / Pillow') built on Sep 2 2012 15:37:04
Writing library : libebml v1.2.3 + libmatroska v1.3.0

Video
ID : 1
Format : AVC
Format/Info : Advanced Video Codec
Format profile : High@L4.1
Format settings, CABAC : Yes
Format settings, ReFrames : 9 frames
Codec ID : V_MPEG4/ISO/AVC
Duration : 1h 32mn
Bit rate : 5 382 Kbps
Width : 1 280 pixels
Height : 692 pixels
Display aspect ratio : 1.85:1
Frame rate mode : Constant
Frame rate : 23.976 fps
Color space : YUV
Chroma subsampling : 4:2:0
Bit depth : 8 bits
Scan type : Progressive
Bits/(Pixel*Frame) : 0.253
Stream size : 3.42 GiB (85%)
Writing library : x264 core 138 r2358 9e941d1
Encoding settings : cabac=1 / ref=9 / deblock=1:-3:-3 / analyse=0x3:0x113 / me=umh / subme=11 / psy=1 / psy_rd=1.00:0.10 / mixed_ref=1 / me_range=32 / chroma_me=1 / trellis=2 / 8x8dct=1 / cqm=0 / deadzone=21,11 / fast_pskip=0 / chroma_qp_offset=-3 / threads=2 / lookahead_threads=1 / sliced_threads=0 / nr=0 / decimate=0 / interlaced=0 / bluray_compat=0 / constrained_intra=0 / bframes=7 / b_pyramid=2 / b_adapt=2 / b_bias=0 / direct=3 / weightb=1 / open_gop=0 / weightp=2 / keyint=240 / keyint_min=23 / scenecut=40 / intra_refresh=0 / rc_lookahead=40 / rc=2pass / mbtree=0 / bitrate=5382 / ratetol=1.0 / qcomp=0.60 / qpmin=0 / qpmax=69 / qpstep=4 / cplxblur=20.0 / qblur=0.5 / vbv_maxrate=50000 / vbv_bufsize=62500 / nal_hrd=none / ip_ratio=1.40 / pb_ratio=1.30 / aq=1:1.00
Language : English
Default : Yes
Forced : No

Audio #1
ID : 2
Format : AC-3
Format/Info : Audio Coding 3
Mode extension : CM (complete main)
Format settings, Endianness : Big
Codec ID : A_AC3
Duration : 1h 32mn
Bit rate mode : Constant
Bit rate : 384 Kbps
Channel(s) : 6 channels
Channel positions : Front: L C R, Side: L R, LFE
Sampling rate : 48.0 KHz
Bit depth : 16 bits
Compression mode : Lossy
Stream size : 255 MiB (6%)
Title : iTunes
Language : Russian
Default : Yes
Forced : No

Audio #2
ID : 3
Format : AC-3
Format/Info : Audio Coding 3
Mode extension : CM (complete main)
Format settings, Endianness : Big
Codec ID : A_AC3
Duration : 1h 32mn
Bit rate mode : Constant
Bit rate : 448 Kbps
Channel(s) : 6 channels
Channel positions : Front: L C R, Side: L R, LFE
Sampling rate : 48.0 KHz
Bit depth : 16 bits
Compression mode : Lossy
Stream size : 298 MiB (7%)
Language : English
Default : No
Forced : No

Menu
00:00:00.000 : :Chapter 01
00:02:45.999 : :Chapter 02
00:07:17.145 : :Chapter 03
00:11:07.458 : :Chapter 04
00:16:07.133 : :Chapter 05
00:18:04.208 : :Chapter 06
00:20:06.664 : :Chapter 07
00:26:21.413 : :Chapter 08
00:28:43.472 : :Chapter 09
00:30:44.468 : :Chapter 10
00:32:58.435 : :Chapter 11
00:35:34.174 : :Chapter 12
00:41:21.479 : :Chapter 13
00:44:06.477 : :Chapter 14
00:47:11.287 : :Chapter 15
00:49:23.002 : :Chapter 16
00:54:15.836 : :Chapter 17
00:57:41.375 : :Chapter 18
00:59:11.840 : :Chapter 19
01:02:03.970 : :Chapter 20
01:08:48.499 : :Chapter 21
01:11:40.213 : :Chapter 22
01:14:36.138 : :Chapter 23
01:16:12.443 : :Chapter 24
01:20:19.940 : :Chapter 25
01:23:41.016 : :Chapter 26
01:26:50.914 : :Chapter 27
01:30:26.212 : :Chapter 28

Релиз от:
загрузка...
Правила, инструкции, FAQ!!!
Торрент  Добавлен [06 фев 2014, 07:32] Скачать торрент
Скачать торрент
[ Размер 20.75 КБ / Просмотров 3 ]

Статус  
 
Размер  4.04 ГБ
Приватный: Нет (DHT включён)
.torrent скачан  0
Как залить торрент? | Как скачать Torrent? | Как смотреть и слушать онлайн?  


     Отправить личное сообщение
   
Страница 1 из 1
Показать сообщения за:  Поле сортировки  
Начать новую тему Ответить на тему

   Похожие торренты   Автор   Ответы   Просмотры   Последнее сообщение 
В этой теме нет новых непрочитанных сообщений. Скачать торрент Довольно слов / Enough Said (2013) BDRip 720p | Лицензия

в форуме 720p | 1080p, Размер: 4.86 ГБ, Здоровье: 0%

Anonymous

0
0|0

64
0

13 фев 2014, 23:17

Anonymous Перейти к последнему сообщению

В этой теме нет новых непрочитанных сообщений. Скачать торрент Довольно слов / Enough Said (2013) HDRip | iTunes

в форуме Драмы, Мелодрамы, Размер: 1.37 ГБ, Здоровье: 0%

Anonymous

0
0|0

65
0

06 фев 2014, 07:35

Anonymous Перейти к последнему сообщению

В этой теме нет новых непрочитанных сообщений. Скачать торрент Довольно слов / Enough Said (2013) BDRip-AVC | P | Лицензия

в форуме 720p | 1080p, Размер: 1.75 ГБ, Здоровье: 0%

Anonymous

0
0|0

33
0

08 мар 2014, 09:55

Anonymous Перейти к последнему сообщению

В этой теме нет новых непрочитанных сообщений. Скачать торрент Гравитация / Gravity (2013) BDRip 720p | iTunes

в форуме 720p | 1080p, Размер: 2.9 ГБ, Здоровье: 0%

Anonymous

0
0|0

27
0

11 фев 2014, 11:43

Anonymous Перейти к последнему сообщению

В этой теме нет новых непрочитанных сообщений. Скачать торрент Проверен Охотники / The Hunters (2013) BDRip 720p | iTunes

в форуме 720p | 1080p, Размер: 3.5 ГБ, Здоровье: 14%

Anonymous

0
123|822

72
21

05 апр 2015, 17:36

Anonymous Перейти к последнему сообщению



Сейчас этот форум просматривают: нет зарегистрированных пользователей и гости: 1


Вы не можете начинать темы
Вы не можете отвечать на сообщения
Вы не можете редактировать свои сообщения
Вы не можете удалять свои сообщения
Вы не можете добавлять вложения

Перейти:  

!ВНИМАНИЕ!
 Ресурс не предоставляет электронные версии произведений, а занимается лишь коллекционированием и каталогизацией ссылок, присылаемых и публикуемых на форуме нашими читателями. Если вы являетесь правообладателем какого-либо представленного материала и не желаете чтобы ссылка на него находилась в нашем каталоге, свяжитесь с нами и мы незамедлительно удалим её. Файлы для обмена на трекере предоставлены пользователями сайта, и администрация не несёт ответственности за их содержание. Просьба не заливать файлы, защищенные авторскими правами, а также файлы нелегального содержания!