На всех торрентах на трекере установлена скидка на скачивание в размере 100 процентов(а).
 Возможность скачивания торрента НЕ зависит от ограничений при низком ратио, низком аплоаде, требуемом ратио или требуемом аплоаде.


Начать новую тему Ответить на тему
Статистика раздачи
Размер: 3.85 ГБ | Добавлен: 05 фев 2014, 23:04 | Скачали: 1
Сидеров: 2  [0 байт/сек]    Личеров: 0  [0 байт/сек]
Пред. тема | След. тема 

Автор
Сообщение

СообщениеДобавлено: 05 фев 2014, 23:04 

Название: После прочтения сжечь
Оригинальное название: Burn After Reading
Год выхода: 2008
Жанр: Драма, комедия, криминал
Режиссер: Итан Коэн, Джоэл Коэн

В ролях: Джордж Клуни, Брэд Питт, Фрэнсис МакДорманд, Джон Малкович, Тильда Суинтон, Ричард Дженкинс, Элизабет Марвел, Дэвид Раш, Дж.К. Симмонс, Олек Крупа, Майкл Кантримэн, Кевин Суссман, Хэмилтон Клэнси, Арман Шульц, Пан Банду, Карла Мосли, Джефри ДеМанн, Ричард По, Кармен М. Херлихи, Рауль Аранас, Джуди Фрэнк, Сандор Текси, Юрий Цыкин, Брайан О’Нилл, Роберт Прескотт, Мэтт Уолтон, Лори Хэммел, Кристал Бок, Патрик Болл, Логан Кулик, Дермот Малруни, Роберт Р. Бэрри, Тед Баутон, Боб Бауэрсокс, Оливер Бакинхем, Майкл Фоусет, Уильям Фоули, Чарльз Геммилл

Вкратце:
Оззи, агента ЦРУ, уволили с поста начальника Балканского направления. Пытаясь преодолеть кризис, он берется за мемуары, содержащие в том числе и секретную информацию. И надо же было такому случиться, что диск с этими данными был потерян в раздевалке спортивного клуба. Находка попадает в руки легкомысленного тренера Чеда и его не менее легкомысленной подруги Линды. Вместе они решают шантажировать бывшего агента, и начинается такая заварушка, в которой не сможет разобраться даже ЦРУ…



Страна: США, Великобритания, Франция
Студия: Focus Features, Mike Zoss Productions, Relativity Media, Studio Canal, Working Title Films
Продолжительность: 01:35:56
Перевод: Профессиональный (полное дублирование) + профессиональный (многоголосый закадровый) + авторский (одноголосый) (А. Гаврилов) + авторский (одноголосый) (Ю. Живов) + оригинал


Кодек: H.264
Качество: BDRip-AVC
Видео: MPEG-4 AVC, 3500 Кбит/с, 1024х554, 23.976 кадр/с
Звук: Русский, английский (АС3, 6 ch, 448 Кбит/с)
Субтитры: Русские, английские

Семпл

General
Unique ID : 237213370961424277616276837612946874996 (0xB275A228C1278576A2DFD9A457EA6274)
Complete name : D:2Films DPosle.prochtenija.szhech.2008.x264.BDRip.AVC.MediaClub.mkv
Format : Matroska
Format version : Version 2
File size : 3.85 GiB
Duration : 1h 35mn
Overall bit rate : 5 742 Kbps
Movie name : = MediaClub = rip by Lefevr
Encoded date : UTC 2013-03-18 12:14:11
Writing application : mkvmerge v5.4.0 ('Piper') built on Mar 10 2012 13:34:39
Writing library : libebml v1.2.3 + libmatroska v1.3.0

Video
ID : 1
Format : AVC
Format/Info : Advanced Video Codec
Format profile : High@L4.1
Format settings, CABAC : Yes
Format settings, ReFrames : 8 frames
Codec ID : V_MPEG4/ISO/AVC
Duration : 1h 35mn
Bit rate : 3 500 Kbps
Width : 1 024 pixels
Height : 554 pixels
Display aspect ratio : 16:9
Frame rate : 23.976 fps
Color space : YUV
Chroma subsampling : 4:2:0
Bit depth : 8 bits
Scan type : Progressive
Bits/(Pixel*Frame) : 0.257
Stream size : 2.27 GiB (59%)
Title : Posle.prochtenija.szhech.2008.x264.BDRip.AVC.MediaClub
Writing library : x264 core 125 r2208 d9d2288
Encoding settings : cabac=1 / ref=8 / deblock=1:-2:-2 / analyse=0x3:0x133 / me=umh / subme=11 / psy=1 / psy_rd=1.00:0.05 / mixed_ref=1 / me_range=32 / chroma_me=1 / trellis=2 / 8x8dct=1 / cqm=0 / deadzone=21,11 / fast_pskip=0 / chroma_qp_offset=-3 / threads=6 / lookahead_threads=1 / sliced_threads=0 / nr=0 / decimate=0 / interlaced=0 / bluray_compat=0 / constrained_intra=0 / bframes=8 / b_pyramid=2 / b_adapt=2 / b_bias=0 / direct=3 / weightb=1 / open_gop=0 / weightp=2 / keyint=240 / keyint_min=23 / scenecut=40 / intra_refresh=0 / rc=2pass / mbtree=0 / bitrate=3500 / ratetol=1.0 / qcomp=0.60 / qpmin=0 / qpmax=69 / qpstep=4 / cplxblur=20.0 / qblur=0.5 / ip_ratio=1.40 / pb_ratio=1.30 / aq=1:0.80
Language : English
Default : Yes
Forced : No

Audio #1
ID : 2
Format : AC-3
Format/Info : Audio Coding 3
Mode extension : CM (complete main)
Codec ID : A_AC3
Duration : 1h 35mn
Bit rate mode : Constant
Bit rate : 448 Kbps
Channel(s) : 6 channels
Channel positions : Front: L C R, Side: L R, LFE
Sampling rate : 48.0 KHz
Bit depth : 16 bits
Compression mode : Lossy
Stream size : 307 MiB (8%)
Title : TRACK_01_DUB_RUS
Language : Russian
Default : Yes
Forced : No

Audio #2
ID : 3
Format : AC-3
Format/Info : Audio Coding 3
Mode extension : CM (complete main)
Codec ID : A_AC3
Duration : 1h 35mn
Bit rate mode : Constant
Bit rate : 448 Kbps
Channel(s) : 6 channels
Channel positions : Front: L C R, Side: L R, LFE
Sampling rate : 48.0 KHz
Bit depth : 16 bits
Compression mode : Lossy
Stream size : 307 MiB (8%)
Title : TRACK_02_MVO_RUS
Language : Russian
Default : No
Forced : No

Audio #3
ID : 4
Format : AC-3
Format/Info : Audio Coding 3
Mode extension : CM (complete main)
Codec ID : A_AC3
Duration : 1h 35mn
Bit rate mode : Constant
Bit rate : 448 Kbps
Channel(s) : 6 channels
Channel positions : Front: L C R, Side: L R, LFE
Sampling rate : 48.0 KHz
Bit depth : 16 bits
Compression mode : Lossy
Stream size : 307 MiB (8%)
Title : TRACK_03_AVO_Gavrilov_RUS
Language : Russian
Default : No
Forced : No

Audio #4
ID : 5
Format : AC-3
Format/Info : Audio Coding 3
Mode extension : CM (complete main)
Codec ID : A_AC3
Duration : 1h 35mn
Bit rate mode : Constant
Bit rate : 448 Kbps
Channel(s) : 6 channels
Channel positions : Front: L C R, Side: L R, LFE
Sampling rate : 48.0 KHz
Bit depth : 16 bits
Compression mode : Lossy
Stream size : 307 MiB (8%)
Title : TRACK_04_AVO_Zhivov_RUS
Language : Russian
Default : No
Forced : No

Audio #5
ID : 6
Format : AC-3
Format/Info : Audio Coding 3
Mode extension : CM (complete main)
Codec ID : A_AC3
Duration : 1h 35mn
Bit rate mode : Constant
Bit rate : 448 Kbps
Channel(s) : 6 channels
Channel positions : Front: L C R, Side: L R, LFE
Sampling rate : 48.0 KHz
Bit depth : 16 bits
Compression mode : Lossy
Stream size : 307 MiB (8%)
Title : TRACK_05_ORIGINAL_ENG
Language : English
Default : No
Forced : No

Text #1
ID : 7
Format : UTF-8
Codec ID : S_TEXT/UTF8
Codec ID/Info : UTF-8 Plain Text
Title : TEXT_01_SUB_ENG
Language : English
Default : No
Forced : No

Text #2
ID : 8
Format : UTF-8
Codec ID : S_TEXT/UTF8
Codec ID/Info : UTF-8 Plain Text
Title : TEXT_02_SUB_RUS
Language : Russian
Default : No
Forced : No

Menu
00:00:00.000 : en:Chapter 01
00:05:00.000 : en:Chapter 02
00:10:00.000 : en:Chapter 03
00:15:00.000 : en:Chapter 04
00:20:00.000 : en:Chapter 05
00:25:00.000 : en:Chapter 06
00:30:00.000 : en:Chapter 07
00:35:00.000 : en:Chapter 08
00:40:00.000 : en:Chapter 09
00:45:00.000 : en:Chapter 10
00:50:00.000 : en:Chapter 11
00:55:00.000 : en:Chapter 12
01:00:00.000 : en:Chapter 13
01:05:00.000 : en:Chapter 14
01:10:00.000 : en:Chapter 15
01:15:00.000 : en:Chapter 16
01:20:00.000 : en:Chapter 17
01:25:00.000 : en:Chapter 18
01:30:00.000 : en:Chapter 19
01:35:00.000 : en:Chapter 20



Релиз от:

За исходник спасибо HDTracker.
Автор рипа: Lefevr.
загрузка...
Правила, инструкции, FAQ!!!
Торрент  Добавлен [05 фев 2014, 23:04] Скачать торрент
Скачать торрент
[ Размер 19.76 КБ / Просмотров 5 ]

Статус  
 
Размер  3.85 ГБ
Приватный: Нет (DHT включён)
.torrent скачан  1
Как залить торрент? | Как скачать Torrent? | Как смотреть и слушать онлайн?  


     Отправить личное сообщение
   
Страница 1 из 1
Показать сообщения за:  Поле сортировки  
Начать новую тему Ответить на тему

   Похожие торренты   Автор   Ответы   Просмотры   Последнее сообщение 
В этой теме нет новых непрочитанных сообщений. Скачать торрент Проверен После прочтения сжечь / Burn After Reading (2008) BDRip 720p | D, P, A

в форуме 720p | 1080p, Размер: 10.82 ГБ, Здоровье: 35%

Гость

0
37|103

160
13

08 май 2016, 20:08

Гость Перейти к последнему сообщению

В этой теме нет новых непрочитанных сообщений. Скачать торрент После прочтения сжечь / Burn After Reading (2008) HDRip

в форуме Комедии, Размер: 1.45 ГБ, Здоровье: 0%

Anonymous

0
0|0

28
0

05 фев 2014, 23:02

Anonymous Перейти к последнему сообщению

В этой теме нет новых непрочитанных сообщений. Скачать торрент После прочтения сжечь / Burn After Reading (Итэн Коэн / Ethan Coen, Джоэл Коэн / Joel Coen) [2008 г., комедия, драма, криминал, BDRip-AVC] Dub + AVO (Сербин) + Original + Sub (Rus, Eng)

в форуме 720p | 1080p, Размер: 2.91 ГБ, Здоровье: 100%

Anonymous

0
34|11

38
0

12 фев 2014, 08:15

Anonymous Перейти к последнему сообщению

В этой теме нет новых непрочитанных сообщений. Скачать торрент Проверен [iPhone] После прочтения сжечь / Burn After Reading (Джоэл Коэн /Joel Coen/, Этан Коэн /Ethan Coen) [2008 г., Комедия Детектив, DVDRip]

в форуме Фильмы для iPod, iPhone, iPad, Размер: 591.44 МБ, Здоровье: 100%

Anonymous

0
11|2

28
2

14 май 2015, 00:18

Anonymous Перейти к последнему сообщению

В этой теме нет новых непрочитанных сообщений. Скачать торрент Проверен (Hard Rock / Heavy Metal) Stone Gods - Коллекция - 2 альбома (2008 - Burn The Witch (EP), 2008 - Silver Spoons & Broke) - 2008, MP3, 320 kbps

в форуме Classic Rock & Hard Rock, Размер: 149.2 МБ, Здоровье: 0%

Anonymous

0
0|0

0
0

14 ноя 2016, 20:43

Anonymous Перейти к последнему сообщению



Сейчас этот форум просматривают: нет зарегистрированных пользователей и гости: 1


Вы не можете начинать темы
Вы не можете отвечать на сообщения
Вы не можете редактировать свои сообщения
Вы не можете удалять свои сообщения
Вы не можете добавлять вложения

Перейти:  

!ВНИМАНИЕ!
 Ресурс не предоставляет электронные версии произведений, а занимается лишь коллекционированием и каталогизацией ссылок, присылаемых и публикуемых на форуме нашими читателями. Если вы являетесь правообладателем какого-либо представленного материала и не желаете чтобы ссылка на него находилась в нашем каталоге, свяжитесь с нами и мы незамедлительно удалим её. Файлы для обмена на трекере предоставлены пользователями сайта, и администрация не несёт ответственности за их содержание. Просьба не заливать файлы, защищенные авторскими правами, а также файлы нелегального содержания!