На всех торрентах на трекере установлена скидка на скачивание в размере 100 процентов(а).
 Возможность скачивания торрента НЕ зависит от ограничений при низком ратио, низком аплоаде, требуемом ратио или требуемом аплоаде.


Начать новую тему Ответить на тему
Статистика раздачи
Размер: 4.38 ГБ | Добавлен: 05 фев 2014, 22:56 | Скачали: 0
Сидеров: 0  [0 байт/сек]    Личеров: 0  [0 байт/сек]
Пред. тема | След. тема 

Автор
Сообщение

СообщениеДобавлено: 05 фев 2014, 22:56 

Название: Дом у озера
Оригинальное название: The Lake House
Год выхода: 2006
Жанр: фэнтези, мелодрама, драма
Режиссер: Алехандро Агрести

В ролях: Кеану Ривз, Сандра Баллок, Шоре Агдашлу, Кристофер Пламмер, Эбон Мосс-Бакрак, Уиллек Ван Аммелрой, Дилан Уолш, Линн Коллинз, Майк Бакарелла, Кевин Бреннан

О фильме:
Зима 2006 года. Ощутив необходимость изменить свою жизнь, доктор Кейт Форестер покидает свой необычный дом у озера в пригороде Иллинойса и устраивается на работу в чикагскую больницу.
Единственное, о чем жалеет Кейт, так это о своем красивом доме с огромными окнами, который дарил ей душевное спокойствие.
По дороге в город Кейт оставляет в почтовом ящике письмо, которое должен получить новый обитатель дома.

Когда же в него вселяется талантливый, но разочаровавшийся в жизни архитектор Алекс Уайлер, он видит этот дом совсем не таким, каким описала его в своем письме Кейт.
Для Алекса это жилище имеет особое значение, поскольку оно было построено его отцом, знаменитым архитектором, который ради карьеры оставил свою семью.
В итоге Алекс решает придать дому его первоначальный вид. Однажды странный случай заставляет Алекса написать ответное письмо Кейт;
в процессе их переписки выясняется, что он живет в 2004 году, а она — в 2006-м. И лишь загадочный почтовый ящик служит неким соединяющим их мостиком.

В письмах они делятся друг с другом самым сокровенным, и постепенно между ними возникает заочный любовный роман. Испытывая неодолимое желание встретиться,
Кейт и Алекс идут на все, чтобы добиться невозможного, рискуя при этом навсегда потерять друг друга…



Страна: США, Австралия
Продолжительность: 01:38:33
Перевод: Русский(дубляж) + Украинский(проф. многоголосый)


Кодек: Н.264
Качество: BDRip 1080p
Видео: 1920x800 (2,40:1) , 5708 Кбит/сек , 23,976 кадр/сек , 0.155 bit/pixel
Звук:
1: 48 kHz, AC3, 3/2 (L,C,R,l,r) + LFE ch, ~448.00 kbps avg (RUS)
2: 48 kHz, AC3, 2/0 (L,R) ~192.00 kbps avg (УКР)
3: В.Королёв.3_2ch 48KHz 640Kbps DELAY -125ms.ac3 Отдельно на народ
4: Russ.MVO.3_2ch 48KHz 448Kbps DELAY -125ms.ac3 Отдельно на народ
5: English 3_2ch 48KHz 640Kbps DELAY -125ms.ac3 Отдельно на народ

Субтитры: Русские, Английские

Семпл
Общее
Уникальный идентификатор : 193643557730875516617024667776077175367 (0x91AE6483DE653007A7EA96C773FE9A47)
Полное имя : D:торрентDom.u.ozera.2006.x264.BDRip1080p.mkv
Формат : Matroska
Версия формата : Version 2
Размер файла : 4,38 Гбайт
Продолжительность : 1 ч. 38 м.
Общий поток : 6356 Кбит/сек
Дата кодирования : UTC 2011-10-05 07:23:00
Программа кодирования : mkvmerge v5.0.0 ('Die Wahre Liebe') built on Sep 25 2011 20:33:49
Библиотека кодирования : libebml v1.2.2 + libmatroska v1.3.0

Видео
Идентификатор : 1
Формат : AVC
Формат/Информация : Advanced Video Codec
Профиль формата : High@L4.1
Параметр CABAC формата : Да
Параметр ReFrames формата : 5 кадров
Идентификатор кодека : V_MPEG4/ISO/AVC
Продолжительность : 1 ч. 38 м.
Битрейт : 5708 Кбит/сек
Ширина : 1920 пикс.
Высота : 800 пикс.
Соотношение сторон : 2,40:1
Частота кадров : 23,976 кадр/сек
Цветовое пространство : YUV
Подвыборка цветности : 4:2:0
Битовая глубина : 8 бит
Тип развёртки : Прогрессивная
Бит/(Пиксели*Кадры) : 0.155
Размер потока : 3,85 Гбайт (88%)
Библиотека кодирования : x264 core 118 r2085 8a62835
Настройки программы : cabac=1 / ref=5 / deblock=1:-2:-2 / analyse=0x3:0x113 / me=umh / subme=9 / psy=1 / psy_rd=1.00:0.15 / mixed_ref=1 / me_range=32 / chroma_me=1 / trellis=1 / 8x8dct=1 / cqm=0 / deadzone=21,11 / fast_pskip=0 / chroma_qp_offset=-3 / threads=6 / sliced_threads=0 / nr=0 / decimate=1 / interlaced=0 / bluray_compat=0 / constrained_intra=0 / bframes=6 / b_pyramid=2 / b_adapt=2 / b_bias=0 / direct=3 / weightb=1 / open_gop=0 / weightp=2 / keyint=250 / keyint_min=23 / scenecut=40 / intra_refresh=0 / rc_lookahead=50 / rc=2pass / mbtree=1 / bitrate=5708 / ratetol=1.0 / qcomp=0.80 / qpmin=0 / qpmax=69 / qpstep=4 / cplxblur=20.0 / qblur=0.5 / ip_ratio=1.40 / aq=1:1.00
Язык : English

Аудио #1
Идентификатор : 2
Формат : AC-3
Формат/Информация : Audio Coding 3
Расширение режима : CM (complete main)
Идентификатор кодека : A_AC3
Продолжительность : 1 ч. 38 м.
Вид битрейта : Постоянный
Битрейт : 448 Кбит/сек
Каналы : 6 каналов
Расположение каналов : Front: L C R, Side: L R, LFE
Частота : 48,0 КГц
Битовая глубина : 16 бит
Метод сжатия : С потерями
Задержка видео : 1 мс.
Размер потока : 316 Мбайт (7%)
Заголовок : Dub
Язык : Russian

Аудио #2
Идентификатор : 3
Формат : AC-3
Формат/Информация : Audio Coding 3
Расширение режима : CM (complete main)
Идентификатор кодека : A_AC3
Продолжительность : 1 ч. 38 м.
Вид битрейта : Постоянный
Битрейт : 192 Кбит/сек
Каналы : 2 канала
Расположение каналов : Front: L R
Частота : 48,0 КГц
Битовая глубина : 16 бит
Метод сжатия : С потерями
Задержка видео : 1 мс.
Размер потока : 135 Мбайт (3%)
Заголовок : MVO
Язык : Ukrainian

Текст #1
Идентификатор : 4
Формат : VobSub
Режим смешивания : zlib
Идентификатор кодека : S_VOBSUB
Идентификатор кодека/Информация : The same subtitle format used on DVDs
Язык : Russian

Текст #2
Идентификатор : 5
Формат : VobSub
Режим смешивания : zlib
Идентификатор кодека : S_VOBSUB
Идентификатор кодека/Информация : The same subtitle format used on DVDs
Язык : English

Меню
00:00:00.000 : en:00:00:00.000
00:03:35.381 : en:00:03:35.381
00:07:38.291 : en:00:07:38.291
00:13:18.130 : en:00:13:18.130
00:17:17.202 : en:00:17:17.202
00:23:39.417 : en:00:23:39.417
00:26:58.450 : en:00:26:58.450
00:32:44.629 : en:00:32:44.629
00:36:40.364 : en:00:36:40.364
00:40:25.422 : en:00:40:25.422
00:45:45.742 : en:00:45:45.742
00:50:27.858 : en:00:50:27.858
00:59:24.727 : en:00:59:24.727
01:03:21.297 : en:01:03:21.297
01:09:23.993 : en:01:09:23.993
01:13:14.890 : en:01:13:14.890
01:15:48.543 : en:01:15:48.543
01:20:21.483 : en:01:20:21.483
01:24:50.752 : en:01:24:50.752
01:28:11.119 : en:01:28:11.119
01:35:03.531 : en:01:35:03.531




Релиз от:
загрузка...
Правила, инструкции, FAQ!!!
Торрент  Добавлен [05 фев 2014, 22:56] Скачать торрент
Скачать торрент
[ Размер 22.35 КБ / Просмотров 8 ]

Статус  
 
Размер  4.38 ГБ
Приватный: Нет (DHT включён)
.torrent скачан  0
Как залить торрент? | Как скачать Torrent? | Как смотреть и слушать онлайн?  


     Отправить личное сообщение
   
Страница 1 из 1
Показать сообщения за:  Поле сортировки  
Начать новую тему Ответить на тему

   Похожие торренты   Автор   Ответы   Просмотры   Последнее сообщение 
В этой теме нет новых непрочитанных сообщений. Скачать торрент Дом у озера / The Lake House (2006) HD-DVDRip

в форуме Фантастика, Фэнтези, Размер: 1.45 ГБ, Здоровье: 100%

Anonymous

0
187|8

38
1849

05 фев 2014, 22:51

Anonymous Перейти к последнему сообщению

В этой теме нет новых непрочитанных сообщений. Скачать торрент Проверен Дом у озера / The Lake House (2006) BDRip 720p

в форуме 720p | 1080p, Размер: 2.87 ГБ, Здоровье: 100%

Гость

0
358|35

33
654

02 янв 2015, 15:41

Гость Перейти к последнему сообщению

В этой теме нет новых непрочитанных сообщений. Скачать торрент Проверен (Progressive House) [EP][24/96] Rowan Blades & Chris Lake - Filth [ARR021] [2004], FLAC (tracks)

в форуме Электронная музыка (оцифровки), Размер: 343.3 МБ, Здоровье: 0%

Anonymous

0
0|0

0
0

14 сен 2016, 23:14

Anonymous Перейти к последнему сообщению

В этой теме нет новых непрочитанных сообщений. Скачать торрент Проверен (Progressive rock) Men Of Lake - Men Of Lake - 1991, FLAC (image + .cue + scans), lossless

в форуме Progressive & Art-Rock, Размер: 354.45 МБ, Здоровье: 0%

Anonymous

0
0|0

2
0

29 авг 2016, 23:53

Anonymous Перейти к последнему сообщению

В этой теме нет новых непрочитанных сообщений. Скачать торрент Проверен Lake Street Dive • House of Blues (Boston, Massachusetts) [2016, Southern rock, Indie pop, Blue-eyed soul, WEB DL 720p]

в форуме Концерты (HD-Video), Размер: 3.43 ГБ, Здоровье: 100%

Anonymous

0
1|0

1
0

23 окт 2016, 13:18

Anonymous Перейти к последнему сообщению



Сейчас этот форум просматривают: нет зарегистрированных пользователей и гости: 1


Вы не можете начинать темы
Вы не можете отвечать на сообщения
Вы не можете редактировать свои сообщения
Вы не можете удалять свои сообщения
Вы не можете добавлять вложения

Перейти:  

!ВНИМАНИЕ!
 Ресурс не предоставляет электронные версии произведений, а занимается лишь коллекционированием и каталогизацией ссылок, присылаемых и публикуемых на форуме нашими читателями. Если вы являетесь правообладателем какого-либо представленного материала и не желаете чтобы ссылка на него находилась в нашем каталоге, свяжитесь с нами и мы незамедлительно удалим её. Файлы для обмена на трекере предоставлены пользователями сайта, и администрация не несёт ответственности за их содержание. Просьба не заливать файлы, защищенные авторскими правами, а также файлы нелегального содержания!