На всех торрентах на трекере установлена скидка на скачивание в размере 100 процентов(а).
 Возможность скачивания торрента НЕ зависит от ограничений при низком ратио, низком аплоаде, требуемом ратио или требуемом аплоаде.


Начать новую тему Ответить на тему
Статистика раздачи
Размер: 7.76 ГБ | Добавлен: 05 фев 2014, 22:41 | Скачали: 658
Сидеров: 70  [0 байт/сек]    Личеров: 13  [0 байт/сек]
Пред. тема | След. тема 

Автор
Сообщение

СообщениеДобавлено: 05 фев 2014, 22:41 

Название: Трон: Наследие
Оригинальное название: TRON: Legacy
Год выхода: 2010
Жанр: фантастика, боевик, триллер, приключения
Режиссер: Джозеф Косински

В ролях: Джефф Бриджес, Гаррет Хедлунд, Оливия Уайлд, Брюс Бокслейтнер, Джеймс Фрейн, Бо Гарретт, Майкл Шин, Серинда Свон, Йайа ДаКоста, Элизабет Мэтис

Вкратце: Сэм Флинн, технически одарённый 27-летний сын Кевина Флинна, начинает расследовать исчезновение своего отца и оказывается втянутым в тот же мир жестоких программ и гладиаторских игр, в котором его отец жил на протяжении 20 лет. Вместе с помощницей Кевина отец и сын пускаются в рискованное путешествие за жизнью по поражающей взгляд кибер-вселенной, которая стала ещё более совершенной и чрезвычайно опасной.

Примечание: В фильме присутствуют IMAX-вставки, которые имеют аспект 16:9, в отличии от остальных сцен фильма 2.35:1. Потому где-то нет, а где-то есть черные полосы. Без них никак.



Выпущено: Walt Disney Pictures
Продолжительность: 02:05:09
Перевод: Дублированный (лицензия)


Кодек: x264
Качество: BDRip (источник: Blu-ray Disc)
Видео: 1920x1080 (16:9), 23.976 fps, 7600 kbps
Аудио #1: AC-3, 6 ch, 640 kbps (Rus)
Аудио #2: AC-3, 6 ch, 640 kbps (Eng)
Субтитры: Русские (форс,полные), Английские
Скачать: сэмпл

Скриншоты

Общее
Уникальный идентификатор : 207078909099574817505632201687894229997 (0x9BC9F27AF39708BAAB433D14903A83ED)
Полное имя : TRON.Legacy.IMAX.2010.BDRip.1080p.Rus.Eng.mkv
Формат : Matroska
Версия формата : Version 2
Размер файла : 7,76 Гбайт
Продолжительность : 2 ч. 5 м.
Общий поток : 8882 Кбит/сек
Название фильма : Трон: Наследие / TRON: Legacy (2010) | IMAX
Дата кодирования : UTC 2012-11-03 17:15:23
Программа кодирования : mkvmerge v5.8.0 ('No Sleep / Pillow') built on Sep 2 2012 15:37:04
Библиотека кодирования : libebml v1.2.3 + libmatroska v1.3.0

Видео
Идентификатор : 1
Формат : AVC
Формат/Информация : Advanced Video Codec
Профиль формата : High@L4.1
Параметр CABAC формата : Да
Параметр ReFrames формата : 4 кадра
Идентификатор кодека : V_MPEG4/ISO/AVC
Продолжительность : 2 ч. 5 м.
Битрейт : 7600 Кбит/сек
Ширина : 1920 пикселей
Высота : 1080 пикселей
Соотношение сторон : 16:9
Частота кадров : 23,976 кадра/сек
Цветовое пространство : YUV
Субдискретизация насыщенности : 4:2:0
Битовая глубина : 8 бит
Тип развёртки : Прогрессивная
Бит/(Пиксели*Кадры) : 0.153
Размер потока : 6,49 Гбайт (84%)
Заголовок : Release by AlexKa
Библиотека кодирования : x264 core 128 r2216 198a7ea
Настройки программы : cabac=1 / ref=4 / deblock=1:0:0 / analyse=0x3:0x133 / me=tesa / subme=11 / psy=1 / psy_rd=1.00:0.00 / mixed_ref=1 / me_range=32 / chroma_me=1 / trellis=2 / 8x8dct=1 / cqm=0 / deadzone=21,11 / fast_pskip=0 / chroma_qp_offset=-2 / threads=12 / lookahead_threads=2 / sliced_threads=0 / nr=0 / decimate=0 / interlaced=0 / bluray_compat=0 / constrained_intra=0 / bframes=7 / b_pyramid=2 / b_adapt=2 / b_bias=0 / direct=3 / weightb=1 / open_gop=0 / weightp=2 / keyint=240 / keyint_min=23 / scenecut=40 / intra_refresh=0 / rc=2pass / mbtree=0 / bitrate=7600 / ratetol=1.0 / qcomp=0.60 / qpmin=0 / qpmax=69 / qpstep=4 / cplxblur=20.0 / qblur=0.5 / ip_ratio=1.40 / pb_ratio=1.30 / aq=1:0.90
Язык : English

Аудио #1
Идентификатор : 2
Формат : AC-3
Формат/Информация : Audio Coding 3
Расширение режима : CM (complete main)
Идентификатор кодека : A_AC3
Продолжительность : 2 ч. 5 м.
Вид битрейта : Постоянный
Битрейт : 640 Кбит/сек
Каналы : 6 каналов
Расположение каналов : Front: L C R, Side: L R, LFE
Частота : 48,0 КГц
Битовая глубина : 16 бит
Метод сжатия : С потерями
Размер потока : 573 Мбайт (7%)
Заголовок : Rus
Язык : Russian

Аудио #2
Идентификатор : 3
Формат : AC-3
Формат/Информация : Audio Coding 3
Расширение режима : CM (complete main)
Идентификатор кодека : A_AC3
Продолжительность : 2 ч. 5 м.
Вид битрейта : Постоянный
Битрейт : 640 Кбит/сек
Каналы : 6 каналов
Расположение каналов : Front: L C R, Side: L R, LFE
Частота : 48,0 КГц
Битовая глубина : 16 бит
Метод сжатия : С потерями
Размер потока : 573 Мбайт (7%)
Заголовок : Eng
Язык : English

Текст #1
Идентификатор : 4
Формат : UTF-8
Идентификатор кодека : S_TEXT/UTF8
Идентификатор кодека/Информация : UTF-8 Plain Text
Заголовок : Rus forced
Язык : Russian

Текст #2
Идентификатор : 5
Формат : UTF-8
Идентификатор кодека : S_TEXT/UTF8
Идентификатор кодека/Информация : UTF-8 Plain Text
Заголовок : Rus
Язык : Russian

Текст #3
Идентификатор : 6
Формат : UTF-8
Идентификатор кодека : S_TEXT/UTF8
Идентификатор кодека/Информация : UTF-8 Plain Text
Заголовок : Eng
Язык : English

Меню
00:00:00.000 : :The Same Team / Одна команда
00:04:07.163 : :All Grown Up / Все взрослеют
00:14:44.133 : :A Visit from a Friend / Визит друга
00:23:15.602 : :The Grid / Система
00:26:52.694 : :Games / Игры
00:36:12.211 : :Not Your Father / Я не твой отец
00:38:35.980 : :Lightcycle Battle / Битва на светоциклах
00:46:52.726 : :The Real Kevin Flynn / Настояший Кевин Флинн
00:53:03.763 : :Father's Wisdom / Отцовская мудрость
01:04:54.181 : :Castor / Кастор
01:13:47.423 : :Zuse / Зюс
01:19:00.944 : :She's An ISO / Она – изоморф!
01:22:40.455 : :Catching Up / Погоня
01:25:50.895 : :A Deal / Сделка
01:28:11.828 : :A Rescue / Спасение
01:31:42.413 : :Building An Army / Создание армии
01:43:13.061 : :Air Battle / Битва в воздухе
01:48:18.033 : :Flynn's Sacrifice / Жертва Флинна
01:54:48.381 : :You Were Right / Ты был прав
01:58:03.659 : :End Credits / Финальные титры
x264 [info]: frame I:1517 Avg QP:18.75 size:147176
x264 [info]: frame P:45083 Avg QP:21.67 size: 73604
x264 [info]: frame B:133428 Avg QP:23.32 size: 26916
x264 [info]: consecutive B-frames: 5.4% 4.2% 9.4% 15.4% 18.3% 42.3% 4.2% 0.8%
загрузка...
Правила, инструкции, FAQ!!!
Торрент  Добавлен [05 фев 2014, 22:41] Скачать торрент
Скачать торрент
[ Размер 39.3 КБ / Просмотров 16 ]

Статус  
 
Размер  7.76 ГБ
Приватный: Нет (DHT включён)
.torrent скачан  658
Как залить торрент? | Как скачать Torrent? | Как смотреть и слушать онлайн?  


     Отправить личное сообщение
   
Страница 1 из 1
Показать сообщения за:  Поле сортировки  
Начать новую тему Ответить на тему

   Похожие торренты   Автор   Ответы   Просмотры   Последнее сообщение 
В этой теме нет новых непрочитанных сообщений. Скачать торрент Трон: Наследие / TRON: Legacy (Джозеф Косински / Joseph Kosinski) [2010 г., фантастика, боевик, триллер, приключения, BDRip-AVC] Dub

в форуме Фантастика, Фэнтези, Размер: 4.36 ГБ, Здоровье: 100%

Anonymous

0
34|11

46
0

16 апр 2014, 07:48

Anonymous Перейти к последнему сообщению

В этой теме нет новых непрочитанных сообщений. Скачать торрент Проверен [MP4 640x360] Трон: Наследие / TRON: Legacy (2010) HDRip [Nokia S^3]

в форуме Видео для смартфонов и КПК, Размер: 1.01 ГБ, Здоровье: ???%

Anonymous

0
0|1

62
0

25 окт 2014, 23:23

Anonymous Перейти к последнему сообщению

В этой теме нет новых непрочитанных сообщений. Скачать торрент Проверен Интерстеллар / Interstellar (2014) BDRip 1080p | IMAX Edition | Лицензия

в форуме 720p | 1080p, Размер: 13.68 ГБ, Здоровье: 14%

Гость

0
118|805

70
27

23 мар 2015, 17:28

Гость Перейти к последнему сообщению

В этой теме нет новых непрочитанных сообщений. Скачать торрент Проверен Стражи Галактики / Guardians of the Galaxy (2014) BDRip 1080p | IMAX Edition | Лицензия

в форуме 720p | 1080p, Размер: 7.49 ГБ, Здоровье: 77%

Гость

0
134|173

100
60

09 апр 2015, 19:52

Гость Перейти к последнему сообщению

В этой теме нет новых непрочитанных сообщений. Скачать торрент Проверен IMAX - The Rolling Stones: Live At The Max (Noel Archambault) [1991, Rock, BDRip 1080p, FLAC var., DVD9]

в форуме Концерты (HD-Video), Размер: 7.88 ГБ, Здоровье: 100%

Anonymous

0
3|1

1
0

23 окт 2016, 14:53

Anonymous Перейти к последнему сообщению



Сейчас этот форум просматривают: нет зарегистрированных пользователей и гости: 1


Вы не можете начинать темы
Вы не можете отвечать на сообщения
Вы не можете редактировать свои сообщения
Вы не можете удалять свои сообщения
Вы не можете добавлять вложения

Перейти:  

!ВНИМАНИЕ!
 Ресурс не предоставляет электронные версии произведений, а занимается лишь коллекционированием и каталогизацией ссылок, присылаемых и публикуемых на форуме нашими читателями. Если вы являетесь правообладателем какого-либо представленного материала и не желаете чтобы ссылка на него находилась в нашем каталоге, свяжитесь с нами и мы незамедлительно удалим её. Файлы для обмена на трекере предоставлены пользователями сайта, и администрация не несёт ответственности за их содержание. Просьба не заливать файлы, защищенные авторскими правами, а также файлы нелегального содержания!