На всех торрентах на трекере установлена скидка на скачивание в размере 100 процентов(а).
 Возможность скачивания торрента НЕ зависит от ограничений при низком ратио, низком аплоаде, требуемом ратио или требуемом аплоаде.


Начать новую тему Ответить на тему
Статистика раздачи
Размер: 6.51 ГБ | Добавлен: 05 фев 2014, 14:07 | Скачали: 0
Сидеров: 0  [0 байт/сек]    Личеров: 0  [0 байт/сек]
Пред. тема | След. тема 

Автор
Сообщение

СообщениеДобавлено: 05 фев 2014, 14:07 

Название: Пьяный рассвет
Оригинальное название: Tequila Sunrise
Год выхода: 1988
Жанр: Боевик, триллер, мелодрама, криминал
Режиссер: Роберт Таун
В ролях: Мэл Гибсон, Мишель Пфайффер, Курт Рассел, Рауль Джулиа, Дж. Т. Уолш, Арлисс Хауард

Вкратце:
Мак МакКьюссик, возможно, оставил наркобизнес. Однако сам наркобизнес никак не хочет оставить его в покое, а друг детства полицейский Ник полон желания поймать Мака с поличным. Оба они неравнодушны к владелице итальянского ресторана Джоанне, чьи чувства разрываются между Ником и Маком.



Страна: США / The Mount Company, Warner Bros. Pictures Co.
Продолжительность: 01:55:16
Перевод: Дублированный, профессиональный многоголосый, профессиональный двухголосый, авторский


Качество: BDRip 720p
Видео: MPEG-4 AVC, 6550 Кбит/с, 1280x720, 23.976 кадр/с
Аудио #1: Русский (AC3, 2 ch, 192 Кбит/с) / Дублированный
Аудио #2: Русский (AC3, 2 ch, 192 Кбит/с) / Профессиональный двухголосый (Universal Channel)
Аудио #3: Русский (AC3, 2 ch, 192 Кбит/с) / Профессиональный многоголосый (НТВ)
Аудио #4: Русский (AC3, 2 ch, 192 Кбит/с) / Авторский одноголосый (А. Михалев)
Аудио #5: Русский (AC3, 2 ch, 192 Кбит/с) / Авторский одноголосый (Л. Володарский)
Аудио #6: Русский (AC3, 2 ch, 192 Кбит/с) / Авторский одноголосый (А. Гаврилов, VHS)
Аудио #7: Русский (AC3, 2 ch, 192 Кбит/с) / Авторский одноголосый (М. Иванов, VHS)
Аудио #8: Английский (AC3, 2 ch, 192 Кбит/с)
Субтитры: Русские, английские

Семпл

• За исходник спасибо HD TRACKER

x264 [info]: frame I:1054 Avg QP:15.73 size:115367
x264 [info]: frame P:31783 Avg QP:17.84 size: 58332
x264 [info]: frame B:132992 Avg QP:19.88 size: 27701
x264 [info]: consecutive B-frames: 1.2% 1.5% 3.7% 16.9% 16.1% 40.1% 8.6% 4.7% 2.7% 2.7% 0.7% 0.4% 0.3% 0.3% 0.2%

Format : Matroska
Format version : Version 4 / Version 2
File size : 6.51 GiB
Duration : 1h 55mn
Overall bit rate : 8 086 Kbps
Movie name : -=MediaClub - Odessit=-
Encoded date : UTC 2014-02-05 08:32:11
Writing application : mkvmerge v6.1.0 ('Old Devil') built on Mar 4 2013 09:10:42
Writing library : libebml v1.3.0 + libmatroska v1.4.0

Video
ID : 1
Format : AVC
Format/Info : Advanced Video Codec
Format profile : High@L4.1
Format settings, CABAC : Yes
Format settings, ReFrames : 9 frames
Codec ID : V_MPEG4/ISO/AVC
Duration : 1h 55mn
Bit rate : 6 550 Kbps
Width : 1 280 pixels
Height : 720 pixels
Display aspect ratio : 16:9
Frame rate mode : Constant
Frame rate : 23.976 fps
Color space : YUV
Chroma subsampling : 4:2:0
Bit depth : 8 bits
Scan type : Progressive
Bits/(Pixel*Frame) : 0.296
Stream size : 5.14 GiB (79%)
Writing library : x264 core 142 r2389kMod 956c8d8
Encoding settings : cabac=1 / ref=9 / deblock=1:-3:-3 / analyse=0x3:0x113 / me=umh / subme=11 / psy=1 / fade_compensate=0.00 / psy_rd=1.00:0.20 / mixed_ref=1 / me_range=32 / chroma_me=1 / trellis=2 / 8x8dct=1 / cqm=0 / deadzone=21,11 / fast_pskip=0 / chroma_qp_offset=-3 / threads=6 / lookahead_threads=1 / sliced_threads=0 / nr=0 / decimate=0 / interlaced=0 / bluray_compat=0 / constrained_intra=0 / fgo=0 / bframes=14 / b_pyramid=2 / b_adapt=2 / b_bias=0 / direct=3 / weightb=1 / open_gop=0 / weightp=2 / keyint=240 / keyint_min=23 / scenecut=40 / intra_refresh=0 / rc=2pass / mbtree=0 / bitrate=6550 / ratetol=1.0 / qcomp=0.60 / qpmin=0 / qpmax=69 / qpstep=4 / cplxblur=20.0 / qblur=0.5 / ip_ratio=1.40 / pb_ratio=1.30 / aq=2:0.80
Language : English
Default : Yes
Forced : No

Audio #1
ID : 2
Format : AC-3
Format/Info : Audio Coding 3
Mode extension : CM (complete main)
Format settings, Endianness : Big
Codec ID : A_AC3
Duration : 1h 55mn
Bit rate mode : Constant
Bit rate : 192 Kbps
Channel count : 2 channels
Channel positions : Front: L R
Sampling rate : 48.0 KHz
Bit depth : 16 bits
Compression mode : Lossy
Stream size : 158 MiB (2%)
Title : Дублированный
Language : Russian
Default : Yes
Forced : No

Audio #2
ID : 3
Format : AC-3
Format/Info : Audio Coding 3
Mode extension : CM (complete main)
Format settings, Endianness : Big
Codec ID : A_AC3
Duration : 1h 55mn
Bit rate mode : Constant
Bit rate : 192 Kbps
Channel count : 2 channels
Channel positions : Front: L R
Sampling rate : 48.0 KHz
Bit depth : 16 bits
Compression mode : Lossy
Stream size : 158 MiB (2%)
Title : Профессиональный двухголосый (Universal Channel)
Language : Russian
Default : No
Forced : No

Audio #3
ID : 4
Format : AC-3
Format/Info : Audio Coding 3
Mode extension : CM (complete main)
Format settings, Endianness : Big
Codec ID : A_AC3
Duration : 1h 55mn
Bit rate mode : Constant
Bit rate : 192 Kbps
Channel count : 2 channels
Channel positions : Front: L R
Sampling rate : 48.0 KHz
Bit depth : 16 bits
Compression mode : Lossy
Stream size : 158 MiB (2%)
Title : Профессиональный многоголосый (НТВ)
Language : Russian
Default : No
Forced : No

Audio #4
ID : 5
Format : AC-3
Format/Info : Audio Coding 3
Mode extension : CM (complete main)
Format settings, Endianness : Big
Codec ID : A_AC3
Duration : 1h 55mn
Bit rate mode : Constant
Bit rate : 192 Kbps
Channel count : 2 channels
Channel positions : Front: L R
Sampling rate : 48.0 KHz
Bit depth : 16 bits
Compression mode : Lossy
Stream size : 158 MiB (2%)
Title : Авторский одноголосый (А. Михалев)
Language : Russian
Default : No
Forced : No

Audio #5
ID : 6
Format : AC-3
Format/Info : Audio Coding 3
Mode extension : CM (complete main)
Format settings, Endianness : Big
Codec ID : A_AC3
Duration : 1h 55mn
Bit rate mode : Constant
Bit rate : 192 Kbps
Channel count : 2 channels
Channel positions : Front: L R
Sampling rate : 48.0 KHz
Bit depth : 16 bits
Compression mode : Lossy
Stream size : 158 MiB (2%)
Title : Авторский одноголосый (Л. Володарский)
Language : Russian
Default : No
Forced : No

Audio #6
ID : 7
Format : AC-3
Format/Info : Audio Coding 3
Mode extension : CM (complete main)
Format settings, Endianness : Big
Codec ID : A_AC3
Duration : 1h 55mn
Bit rate mode : Constant
Bit rate : 192 Kbps
Channel count : 2 channels
Channel positions : Front: L R
Sampling rate : 48.0 KHz
Bit depth : 16 bits
Compression mode : Lossy
Stream size : 158 MiB (2%)
Title : Авторский одноголосый (А. Гаврилов, VHS)
Language : Russian
Default : No
Forced : No

Audio #7
ID : 8
Format : AC-3
Format/Info : Audio Coding 3
Mode extension : CM (complete main)
Format settings, Endianness : Big
Codec ID : A_AC3
Duration : 1h 55mn
Bit rate mode : Constant
Bit rate : 192 Kbps
Channel count : 2 channels
Channel positions : Front: L R
Sampling rate : 48.0 KHz
Bit depth : 16 bits
Compression mode : Lossy
Stream size : 158 MiB (2%)
Title : Авторский одноголосый (М. Иванов, VHS)
Language : Russian
Default : No
Forced : No

Audio #8
ID : 9
Format : AC-3
Format/Info : Audio Coding 3
Mode extension : CM (complete main)
Format settings, Endianness : Big
Codec ID : A_AC3
Duration : 1h 55mn
Bit rate mode : Constant
Bit rate : 192 Kbps
Channel count : 2 channels
Channel positions : Front: L R
Sampling rate : 48.0 KHz
Bit depth : 16 bits
Compression mode : Lossy
Stream size : 158 MiB (2%)
Language : English
Default : No
Forced : No

Text #1
ID : 10
Format : UTF-8
Codec ID : S_TEXT/UTF8
Codec ID/Info : UTF-8 Plain Text
Title : Full
Language : Russian
Default : No
Forced : No

Text #2
ID : 11
Format : UTF-8
Codec ID : S_TEXT/UTF8
Codec ID/Info : UTF-8 Plain Text
Title : SDH
Language : English
Default : No
Forced : No

Menu
00:00:00.000 : :Chapter 01
00:02:08.586 : :Chapter 02
00:06:02.404 : :Chapter 03
00:07:42.127 : :Chapter 04
00:10:34.843 : :Chapter 05
00:14:25.114 : :Chapter 06
00:16:21.856 : :Chapter 07
00:17:44.689 : :Chapter 08
00:21:26.660 : :Chapter 09
00:25:35.242 : :Chapter 10
00:35:08.315 : :Chapter 11
00:41:06.839 : :Chapter 12
00:44:39.010 : :Chapter 13
00:47:39.106 : :Chapter 14
00:52:09.335 : :Chapter 15
00:56:34.433 : :Chapter 16
00:57:33.492 : :Chapter 17
00:59:51.671 : :Chapter 18
01:06:04.669 : :Chapter 19
01:10:52.497 : :Chapter 20
01:13:54.597 : :Chapter 21
01:17:51.125 : :Chapter 22
01:22:34.908 : :Chapter 23
01:25:20.365 : :Chapter 24
01:27:54.436 : :Chapter 25
01:33:44.702 : :Chapter 26
01:36:39.585 : :Chapter 27
01:41:05.559 : :Chapter 28
01:48:04.978 : :Chapter 29
01:49:22.514 : :Chapter 30
01:51:22.092 : :Chapter 31



Релиз от:
загрузка...
Правила, инструкции, FAQ!!!
Торрент  Добавлен [05 фев 2014, 14:07] Скачать торрент
Скачать торрент
[ Размер 33.07 КБ / Просмотров 8 ]

Статус  
 
Размер  6.51 ГБ
Приватный: Нет (DHT включён)
.torrent скачан  0
Как залить торрент? | Как скачать Torrent? | Как смотреть и слушать онлайн?  


     Отправить личное сообщение
   
Страница 1 из 1
Показать сообщения за:  Поле сортировки  
Начать новую тему Ответить на тему

   Похожие торренты   Автор   Ответы   Просмотры   Последнее сообщение 
В этой теме нет новых непрочитанных сообщений. Скачать торрент Пьяный рассвет / Tequila Sunrise (1988) HDRip

в форуме Боевики, Размер: 1.35 ГБ, Здоровье: 0%

Anonymous

0
0|0

42
0

05 фев 2014, 14:10

Anonymous Перейти к последнему сообщению

В этой теме нет новых непрочитанных сообщений. Скачать торрент Проверен Пьяный мастер / Drunken Master (1978) BDRip [576p] iPad

в форуме Фильмы для iPod, iPhone, iPad, Размер: 3.1 ГБ, Здоровье: 100%

Anonymous

0
2|1

28
0

13 дек 2014, 00:12

Anonymous Перейти к последнему сообщению

В этой теме нет новых непрочитанных сообщений. Скачать торрент Проверен Пьяный мастер 2 / The Legend of Drunken Master (1994) BDRip [576p] iPad

в форуме Фильмы для iPod, iPhone, iPad, Размер: 3.35 ГБ, Здоровье: 100%

Anonymous

0
1|1

73
0

13 дек 2014, 00:13

Anonymous Перейти к последнему сообщению

В этой теме нет новых непрочитанных сообщений. Скачать торрент Проверен Красный скорпион / Red Scorpion (1988) BDRip 720p | P, A

в форуме 720p | 1080p, Размер: 7.95 ГБ, Здоровье: 100%

Anonymous

0
14|3

65
168

18 окт 2014, 20:28

Anonymous Перейти к последнему сообщению

В этой теме нет новых непрочитанных сообщений. Скачать торрент Проверен Кровавый спорт / Bloodsport (1988) BDRip 720p | P, P2, A

в форуме 720p | 1080p, Размер: 5.97 ГБ, Здоровье: 50%

Anonymous

0
9|18

16
16

27 сен 2014, 19:46

Anonymous Перейти к последнему сообщению



Сейчас этот форум просматривают: нет зарегистрированных пользователей и гости: 1


Вы не можете начинать темы
Вы не можете отвечать на сообщения
Вы не можете редактировать свои сообщения
Вы не можете удалять свои сообщения
Вы не можете добавлять вложения

Перейти:  

!ВНИМАНИЕ!
 Ресурс не предоставляет электронные версии произведений, а занимается лишь коллекционированием и каталогизацией ссылок, присылаемых и публикуемых на форуме нашими читателями. Если вы являетесь правообладателем какого-либо представленного материала и не желаете чтобы ссылка на него находилась в нашем каталоге, свяжитесь с нами и мы незамедлительно удалим её. Файлы для обмена на трекере предоставлены пользователями сайта, и администрация не несёт ответственности за их содержание. Просьба не заливать файлы, защищенные авторскими правами, а также файлы нелегального содержания!